новый адрес пиратбит piratbit
Мега распродажа FORZA HORIZON 4 ULTIMATE+ВСЕ DLC+ОНЛАЙН всего за 499р. 349 руб. (супер цена). Внимание количество ограничено!!!

iTunes

1+1

iTunes

мы

iTunes

1

iTunes

Чернобыль

iTunes

Ральф против интернета

Лицензия

ПШазам

Лицензия

Игра престолов

Лицензия

30
pack

ВАЖНО

!!Акция!!

Alien_RageХит недели

RePack

Resident Evil 21

ИГРА 18+

pack

RePack

Metro:Exodus

!!Акция!!

Alien_Rage

RePack

fifa19

RePack

Assassins Creed: Odyssey

RePack

NEED FOR SPEED™ PAYBACK

3 сезон

9 сезон

Бесстыжие 9 сезон

Все сериалы

все сериалы на PB.wtf

RePack

FAR CRY 5
Ребята, катастрофически не хватает 1900р. для оплаты серверов за Октябрь (всвязи с блокировками трафик упал в 3 раза), 1-2р., выручайте.
  

Рокетмен / Rocketman (Декстер Флетчер) [2019, Мюзикл, драма, биография, музыка, WEBRip] MVO [HDRezka Studio] piratbit.pw

Рокетмен через торрент piratbit.pw

Раздают: 6 [ 9 KB/s ]
Размер: 1.46 GB | Добавлен: 4 мес. 1 д. назад | Торрент скачан:449 раз
Скачать  

11-07-2019 04:36 Рокетмен Скачать торрент  

Год выпуска: 2019
Страна: Великобритания США Канада
Жанр: Мюзикл, драма, биография, музыка
Продолжительность: 02:00:19
Перевод: Профессиональный (многоголосый) | HDRezka Studio
Субтитры: корейские (вшитые)

Режиссер: Декстер Флетчер

rating
скриншот  

В ролях: Тэрон Эджертон, Джейми Белл, Ричард Мэдден, Брайс Даллас Ховард, Джемма Джонс, Стивен Макинтош, Том Беннетт, Мэтью Иллесли, Кит Коннор, Чарли Роу

Описание: История превращения застенчивого парня Реджинальда Дуайта, талантливейшего пианиста из маленького городка, в суперзвезду и культовую фигуру мировой поп-музыки Элтона Джона.

Качество: WEBRip
Формат: AVI

Видео: 720x304 (2.35:1), 23.976 fps, XviD build 73 ~1 538 kbps avg
Аудио: 48.0 kHz, AC3 Dolby Digital, 2/0 (L,R) ch, ~192 kbps
скриншот  скриншот  скриншот  

General
Формат : AVI
Формат/Информация : Audio Video Interleave
Размер файла : 1,46 Гбайт
Продолжительность : 2 ч. 0 м.
Общий поток : 1739 Кбит/сек
Название фильма : Рокетмен_2019_WEBRip
Программа кодирования : VirtualDubMod 1.5.10.3 | (build 2550/release)
Авторское право : порошков

Видео
Идентификатор : 0
Формат : MPEG-4 Visual
Профиль формата : Advanced Simple@L5
Настройки формата : BVOP1 / Custom Matrix
Параметр BVOP формата : 1
Параметр QPel формата : Нет
Параметр GMC формата : Без точки перехода
Параметр матрицы формата : Выборочная
Идентификатор кодека : XVID
Идентификатор кодека/Подсказка : XviD
Продолжительность : 2 ч. 0 м.
Битрейт : 1538 Кбит/сек
Ширина : 720 пикселей
Высота : 304 пикселя
Соотношение сторон : 2,35:1
Частота кадров : 23,976 (24000/1001) кадра/сек
Цветовое пространство : YUV
Субдискретизация насыщенности : 4:2:0
Битовая глубина : 8 бит
Тип развёртки : Прогрессивная
Метод сжатия : С потерями
Бит/(Пиксели*Кадры) : 0.293
Размер потока : 1,29 Гбайт (88%)
Библиотека кодирования : XviD 73

Аудио
Идентификатор : 1
Формат : AC-3
Формат/Информация : Audio Coding 3
Коммерческое название : Dolby Digital
Идентификатор кодека : 2000
Продолжительность : 2 ч. 0 м.
Вид битрейта : Постоянный
Битрейт : 192 Кбит/сек
Каналы : 2 канала
ChannelLayout : L R
Частота : 48,0 КГц
Частота кадров : 31,250 кадров/сек (1536 SPF)
Битовая глубина : 16 бит
Метод сжатия : С потерями
Размер потока : 165 Мбайт (11%)
Выравнивание : Разделение по промежуткам
Продолжительность промежутка : 42 мс. (1,00 видеокадр)
Время предзагрузки промежутка : 500 мс.

piratbit.pw



Скачать Рокетмен через торрент https://d.radikal.ru/d03/1907/9c/852db429e104.jpg Скачать фильм Рокетмен через торрент бесплантно в хорошем качестве Описание: История превращения застенчивого парня Реджинальда Дуайта, талантливейшего пианиста из маленького городка, в суперзвезду и ... 10 10 8
Торрент: Зарегистрирован [2019-07-11 04:36] · скачан: 449 раз
Статус: T временная
Размер: 1.46 GB
Как cкачать? Как скачать Рокетмен через торрент | qTorrent

% Раздел Тема Автор DL S | L
Фильмы [HD 720p, 1080p] (Хороший звук DUB, MVO) [ 8.72 GB ] Рокетмен / Rocketman [2019 Мюзикл биография музыка BDRip 1080p] DUB [] bober100 Скачать
8 | 0
Фильмы (Blu-ray, BD-Remux, HDDVD) [ 44.98 GB ] Рокетмен / Rocketman [2019 Мюзикл биография музыка Blu-ray EUR 1080p] DUB [] bober100 Скачать
1 | 0
Ultra HD (UHD: 2K, 4K, 8K) — видео сверхвысокой чёткости [ 61.23 GB ] Рокетмен / Rocketman [2019 Мюзикл биография музыка UHD BDRemux 2160p] [Dolby Vision TV] DUB [] bober100 Скачать
3 | 0
Фильмы [HD 720p, 1080p] (Хороший звук DUB, MVO) [ 4.89 GB ] Рокетмен / Rocketman [2019 Мюзикл биография музыка BDRip-HEVC 1080p ] DUB [] bober100 Скачать
4 | 0
Фильмы 2019 [DVDrip, WEB-DLRip, HDrip] (DUB, MVO) [ 2.18 GB ] Рокетмен / Rocketman [2019 мюзикл биография музыка BDRip] - [] Twi7ter Скачать
21 | 0
Фильмы 2019 [DVDrip, WEB-DLRip, HDrip] (DUB, MVO) [ 1.46 GB ] Рокетмен / Rocketman [2019 мюзикл биография музыка BDRip] - [] Twi7ter Скачать
28 | 0
Ultra HD (UHD: 2K, 4K, 8K) — видео сверхвысокой чёткости [ 22.62 GB ] Рокетмен / Rocketman [2019 Мюзикл биография музыка UHD BDRip 2160p] [SDR] DUB [] bober100 Скачать
1 | 0


>> Регистрируемся здесь <<






Отзывы и комментарии о схеме читаем и пишем здесь: ---> Отзывы и комментарии о схеме

Новые благодарочки в телеграм довольных пользователей:
скриншот   скриншот   скриншот   скриншот   скриншот

18-08-2019 21:02 Рокетмен Скачать торрент  

Топик был перенесен из форума Фильмы 2019 [DVDrip, WEB-DLRip, HDrip] (DUB, MVO) в форум Для поглощённых раздач


bober100piratbit.pw



    Дорогой пользователь! Огромная просьба, поблагодарите релизера, оцените раздачу и оставьте свои комментарий, если Вы скачали Рокетмен через торрент бесплатно! Внесите свою лепту в развитие PiratBit!
    Комментировать посты могут только пользователи прошедшие не сложную регистрацию
    Показать сообщения:    

    Рокетмен через торрент
    Скачать бесплатно Рокетмен
    Рокетмен скачать торрент
    Рокетмен смотреть онлайн
    Cкачать фильм Рокетмен бесплатно
    Рокетмен скачать торрент в хорошем качестве
    Рокетмен смотреть онлайн бесплатно в хорошем качестве


    Вы не можете начинать темы
    Вы не можете отвечать на сообщения
    Вы не можете редактировать свои сообщения
    Вы не можете удалять свои сообщения
    Вы не можете голосовать в опросах
    Вы не можете прикреплять файлы к сообщениям
    Вы можете скачивать файлы