новый адрес пиратбит piratbit
Мега распродажа FORZA HORIZON 4 ULTIMATE+ВСЕ DLC+ОНЛАЙН всего за 499р. 349 руб. (супер цена). Внимание количество ограничено!!!

iTunes

1+1

iTunes

мы

iTunes

1

iTunes

Чернобыль

iTunes

Ральф против интернета

Лицензия

ПШазам

Лицензия

Игра престолов

Лицензия

30
pack

ВАЖНО

!!Акция!!

Alien_RageХит недели

RePack

Resident Evil 21

ИГРА 18+

pack

RePack

Metro:Exodus

!!Акция!!

Alien_Rage

RePack

fifa19

RePack

Assassins Creed: Odyssey

RePack

NEED FOR SPEED™ PAYBACK

3 сезон

9 сезон

Бесстыжие 9 сезон

Все сериалы

все сериалы на PB.wtf

RePack

FAR CRY 5
Ребята, катастрофически не хватает 1900р. для оплаты серверов за Октябрь (всвязи с блокировками трафик упал в 3 раза), 1-2р., выручайте.
  

Призраки дома Винчестеров в 3Д / Haunting of Winchester House 3D (Марк Аткинс / Mark Atkins) [2009, ужасы, триллер, детектив, BDRip, 1080p] OverUnder / Вертикальная стереопара (DVO) piratbit.pw

Призраки дома Винчестеров в 3Д через торрент piratbit.pw

Размер: 9.01 GB | Добавлен: 4 мес. 5 д. назад | Торрент скачан:10 раз
Скачать  

09-07-2019 16:03 Призраки дома Винчестеров в 3Д Скачать торрент  

Призраки дома Винчестеров / Haunting of Winchester House

Год выпуска: 2009
Страна: США (Global Asylum)
Жанр: ужасы, триллер, детектив
Продолжительность: 01:25:32

Перевод: Профессиональный (двухголосый закадровый)
Русские субтитры: нет
Режиссер: Марк Аткинс / Mark Atkins

В ролях: Риа Мейерс, Сари Шиэн, Дэвид Макинтайр, Дженнифер Смарт, Пэтти Робертс, Майкл Холмс, Лира Келлерман

Описание: Оказавшись в стесненных обстоятельствах, семья Гринеров соглашается присматривать за старинным особняком, несмотря на дурную славу зловещего жилища. Въехав в огромный дом, они довольно быстро сталкиваются с истинными хозяевами дома! Побеспокоенные вторжением призраки обрушивают весь свой гнев на непрошенных жильцов. Пытаясь разгадать тайну старого особняка, Гринеры обращаются за помощью к исследователю паранормальных явлений…

Сэмпл: http://sendfile.su/1504907

Качество: BDrip, 1080p
Контейнер: MKV
Формат 3D: OverUnder / Вертикальная стереопара
Порядок ракурсов: левый ракурс первый
Видео кодек: x264
Аудио кодек: AC3
Видео: AVC / High@L5.0 / 23,976 fps / 1920х2160 / 13,8 Мбит/сек
Аудио: Русский / AC3 / 48 KHz / 5.1 ch / 384 Кбит/сек
Аудио 2: Английский / AC3 / 48 KHz / 5.1 ch / 640 Кбит/сек

ВНИМАНИЕ ! На встроенных ТВ-плеерах работать не будет!!!

ТВ Samsung в названии которого есть надпись Ultra HD , и LG Ultra HD 800 серии, LG C6P, Xiaomi Mi TV 2 воспроизводят полные стереопары встроенными плеерами
Железные плееры на которых воспроизводятся полные стереопары:Popcorn C-200 , Dune HD Smart D1 , Dune HD DUO , Dune HD Smart H1 , Dune HD Smart B1 , Dune HD Max , Dune HD TV-303D, Dune HD TV-102, Dune HD Base 3D, Philips HMP7001, Aura HD, MECOOL BB2
Чтобы изображение было на весь экран в плеере выставляем, если рип 1920х1600 - то выставляем 2.35:1 , если 1920х2160 - то выставляем 16:9
Общее
Уникальный идентификатор : 199324375555407025833421204555436399827 (0x95F47A7554FF51CA87531447D9941CD3)
Полное имя : E:\видео\Haunting of Winchester House.Rip by SeRoGa00.mkv
Формат : Matroska
Версия формата : Version 2
Размер файла : 9,01 Гбайт
Продолжительность : 1 ч. 25 м.
Общий поток : 15,1 Мбит/сек
Дата кодирования : UTC 2019-07-09 12:27:38
Программа кодирования : mkvmerge v3.4.0 ('Rapunzel') сборка от May 15 2010 09:38:20
Библиотека кодирования : libebml v0.8.0 + libmatroska v0.9.0

Видео
Идентификатор : 1
Формат : AVC
Формат/Информация : Advanced Video Codec
Профиль формата : High@L5.0
Параметр CABAC формата : Да
Параметр ReFrames формата : 4 кадра
Идентификатор кодека : V_MPEG4/ISO/AVC
Продолжительность : 1 ч. 25 м.
Битрейт : 13,8 Мбит/сек
Ширина : 1920 пикселей
Высота : 2160 пикселей
Соотношение сторон : 0,889
Частота кадров : 23,976 кадра/сек
Цветовое пространство : YUV
Субдискретизация насыщенности : 4:2:0
Битовая глубина : 8 бит
Тип развёртки : Прогрессивная
Бит/(Пиксели*Кадры) : 0.138
Размер потока : 8,22 Гбайт (91%)
Заголовок : Rip by SeRoGa00
Библиотека кодирования : x264 core 155 r2901 7d0ff22
Настройки программы : cabac=1 / ref=4 / deblock=1:-3:-3 / analyse=0x3:0x113 / me=umh / subme=10 / psy=1 / psy_rd=1.00:0.15 / mixed_ref=1 / me_range=24 / chroma_me=1 / trellis=2 / 8x8dct=1 / cqm=0 / deadzone=21,11 / fast_pskip=1 / chroma_qp_offset=-3 / threads=18 / lookahead_threads=6 / sliced_threads=0 / nr=0 / decimate=0 / interlaced=0 / bluray_compat=0 / constrained_intra=0 / bframes=10 / b_pyramid=2 / b_adapt=2 / b_bias=0 / direct=3 / weightb=1 / open_gop=0 / weightp=2 / keyint=250 / keyint_min=23 / scenecut=40 / intra_refresh=0 / rc_lookahead=60 / rc=crf / mbtree=1 / crf=16.5 / qcomp=0.60 / qpmin=10 / qpmax=69 / qpstep=4 / vbv_maxrate=40000 / vbv_bufsize=40000 / crf_max=0.0 / nal_hrd=none / filler=0 / ip_ratio=1.40 / aq=1:1.00
Язык : English
Default : Нет
Forced : Нет

Аудио #1
Идентификатор : 2
Формат : AC-3
Формат/Информация : Audio Coding 3
Расширение режима : CM (complete main)
Параметр Endianness формата : Big
Идентификатор кодека : A_AC3
Продолжительность : 1 ч. 25 м.
Вид битрейта : Постоянный
Битрейт : 384 Кбит/сек
Каналы : 6 каналов
Расположение каналов : Front: L C R, Side: L R, LFE
Частота : 48,0 КГц
Битовая глубина : 16 бит
Метод сжатия : С потерями
Размер потока : 235 Мбайт (3%)
Язык : Russian
Default : Да
Forced : Нет

Аудио #2
Идентификатор : 3
Формат : AC-3
Формат/Информация : Audio Coding 3
Расширение режима : CM (complete main)
Параметр Endianness формата : Big
Идентификатор кодека : A_AC3
Продолжительность : 1 ч. 25 м.
Вид битрейта : Постоянный
Битрейт : 640 Кбит/сек
Каналы : 6 каналов
Расположение каналов : Front: L C R, Side: L R, LFE
Частота : 48,0 КГц
Битовая глубина : 16 бит
Метод сжатия : С потерями
Размер потока : 392 Мбайт (4%)
Язык : English
Default : Нет
Forced : Нет

Меню
00:00:00.000 : :1
00:07:11.931 : :2
00:13:36.065 : :3
00:21:05.222 : :4
00:29:49.663 : :5
00:34:21.059 : :6
00:41:33.616 : :7
00:48:24.860 : :8
00:57:00.792 : :9
01:02:36.419 : :10
01:08:54.172 : :11
01:16:51.273 : :12
скриншот  
скриншот  
скриншот  
скриншот  
скриншот  
скриншот  
piratbit.pw



Скачать Призраки дома Винчестеров в 3Д через торрент https://d.radikal.ru/d35/1907/b4/44055c6615ce.jpg Скачать фильм Призраки дома Винчестеров в 3Д через торрент бесплантно в хорошем качестве Описание: Оказавшись в стесненных обстоятельствах, семья Гринеров соглашается присматривать за старинным особняком, несмотря на дурную ... 5 10 1
Торрент: Зарегистрирован [2019-07-09 16:03] · скачан: 10 раз
Статус: √ проверено
Размер: 9.01 GB
Как cкачать? Как скачать Призраки дома Винчестеров в 3Д через торрент | qTorrent


>> Регистрируемся здесь <<






Отзывы и комментарии о схеме читаем и пишем здесь: ---> Отзывы и комментарии о схеме

Новые благодарочки в телеграм довольных пользователей:
скриншот   скриншот   скриншот   скриншот   скриншот
    Дорогой пользователь! Огромная просьба, поблагодарите релизера, оцените раздачу и оставьте свои комментарий, если Вы скачали Призраки дома Винчестеров в 3Д через торрент бесплатно! Внесите свою лепту в развитие PiratBit!
    Комментировать посты могут только пользователи прошедшие не сложную регистрацию
    Показать сообщения:    

    Призраки дома Винчестеров в 3Д через торрент
    Скачать бесплатно Призраки дома Винчестеров в 3Д
    Призраки дома Винчестеров в 3Д скачать торрент
    Призраки дома Винчестеров в 3Д смотреть онлайн
    Cкачать фильм Призраки дома Винчестеров в 3Д бесплатно
    Призраки дома Винчестеров в 3Д скачать торрент в хорошем качестве
    Призраки дома Винчестеров в 3Д смотреть онлайн бесплатно в хорошем качестве


    Вы не можете начинать темы
    Вы не можете отвечать на сообщения
    Вы не можете редактировать свои сообщения
    Вы не можете удалять свои сообщения
    Вы не можете голосовать в опросах
    Вы не можете прикреплять файлы к сообщениям
    Вы можете скачивать файлы