Ссылка на приватное зеркало нашего сайта всего за 1$. Внимание количество ограничено!!!

2 сезон

iTunes

iTunes

1

iTunes

iTunes

iTunes

WEBRip

iTunes

30
pack

Вам бонус

ВАЖНО

!!Акция!!

Alien_RageХит недели

RePack

Horizon Zero Dawn

ИГРА 18+

pack

RePack

jed

!!Акция!!

Alien_Rage

RePack

fifa19

RePack

Assassins Creed: Odyssey

RePack

NEED FOR SPEED™ PAYBACK

4 сезон

9 сезон

Бесстыжие 9 сезон

Все сериалы

все сериалы на PB.wtf

RePack

FAR CRY 5
  

Брат: Дилогия (Алексей Балабанов) [1997-2000, боевик, драма, криминал, музыка, WEB-DLRip 720p от KORSAR] piratbit.pw

Брат: Дилогия через торрент piratbit.pw

Раздают: 1 [ 0 KB/s ]
Размер: 13.64 GB | Добавлен: 1 год 2 мес. назад | Торрент скачан:107 раз
Скачать  

05-07-2019 15:22 Брат: Дилогия Скачать торрент  

Брат: Дилогия

Страна: Россия
Жанр: боевик, драма, криминал, музыка
Год выпуска: 1997
Продолжительность: 01:35:22 + 02:02:40

Перевод: Не требуется
Субтитры: русские
Оригинальная аудиодорожка: русский

Режиссер: Алексей Балабанов

В ролях: Сергей Бодров мл., Виктор Сухоруков, Светлана Письмиченко, Мария Жукова, Юрий Кузнецов, Сергей Мурзин, Ирина Ракшина, Анатолий Журавлев, Андрей Федорцов, Андрей Краско

Описание: Демобилизованный из армии, Данила Багров вернулся в родной городок. Но скучная жизнь российской провинции не устраивала его, и он решился податься в Петербург, где, по слухам, уже несколько лет процветает его старший брат. Данила нашел брата. Но все оказалось не так просто — брат был наемным убийцей…

Релиз от:

Тип релиза: WEB-DLRip 720p
Контейнер: MKV

Видео: MPEG-4 AVC, 1280x720, 25 fps, ~7200 Кбит/с
Аудио: AC3, 6 ch, 448 Кбит/с, AC3, 6 ch, 384 Кбит/с (амальгама), AC3, 2 ch, 256 Кбит/с
Формат субтитров: softsub (SRT)
x264 [info]: frame I:754 Avg QP:17.71 size:176228
x264 [info]: frame P:28251 Avg QP:19.17 size: 80794
x264 [info]: frame B:114074 Avg QP:21.32 size: 18841
x264 [info]: consecutive B-frames: 1.0% 1.8% 4.8% 13.9% 21.6% 45.0% 6.5% 1.8% 2.0% 0.4% 1.2% 0.1%Общее
Уникальный идентификатор : 223664507151690972003529246347298539833 (0xA84437993D6AC70390110E5979130939)
Полное имя : D:DVDБРАТ_1997-2000-WEB-DLRip 720p_KORSARБрат_1997-WEB-DLRip 720p_KORSAR.mkv
Формат : Matroska
Версия формата : Version 2
Размер файла : 4,98 Гбайт
Продолжительность : 1 ч. 35 м.
Общий поток : 7470 Кбит/сек
Название фильма : Брат_1997-WEB-DLRip 720p_KORSAR
Дата кодирования : UTC 2019-05-15 03:31:31
Программа кодирования : mkvmerge v5.8.0 ('No Sleep / Pillow') built on Sep 2 2012 15:37:04
Библиотека кодирования : libebml v1.2.3 + libmatroska v1.3.0

Видео
Идентификатор : 1
Формат : AVC
Формат/Информация : Advanced Video Codec
Профиль формата : High@L4.1
Настройки формата : CABAC / 9 Ref Frames
Параметр CABAC формата : Да
Параметр RefFrames формата : 9 кадров
Идентификатор кодека : V_MPEG4/ISO/AVC
Продолжительность : 1 ч. 35 м.
Битрейт : 6234 Кбит/сек
Ширина : 1280 пикселей
Высота : 720 пикселей
Соотношение сторон : 16:9
Режим частоты кадров : Постоянный
Частота кадров : 25,000 кадров/сек
Цветовое пространство : YUV
Субдискретизация насыщенности : 4:2:0
Битовая глубина : 8 бит
Тип развёртки : Прогрессивная
Бит/(Пиксели*Кадры) : 0.271
Размер потока : 4,15 Гбайт (83%)
Библиотека кодирования : x264 core 152 r2851kMod ba24899
Настройки программы : cabac=1 / ref=9 / deblock=1:-2:-2 / analyse=0x3:0x113 / me=umh / subme=10 / psy=1 / fade_compensate=0.00 / psy_rd=1.00:0.10 / mixed_ref=1 / me_range=40 / chroma_me=1 / trellis=2 / 8x8dct=1 / cqm=0 / deadzone=21,11 / fast_pskip=1 / chroma_qp_offset=-3 / threads=12 / lookahead_threads=3 / sliced_threads=0 / nr=0 / decimate=1 / interlaced=0 / bluray_compat=0 / constrained_intra=0 / bframes=11 / b_pyramid=2 / b_adapt=2 / b_bias=0 / direct=1 / weightb=1 / open_gop=0 / weightp=2 / keyint=250 / keyint_min=25 / scenecut=40 / intra_refresh=0 / rc=crf / mbtree=0 / crf=18.7000 / qcomp=0.63 / qpmin=0 / qpmax=30 / qpstep=4 / ip_ratio=1.40 / pb_ratio=1.30 / aq=1:0.90
Язык : English
Default : Да
Forced : Нет
Цветовой диапазон : Limited
Основные цвета : BT.709
Характеристики трансфера : BT.709
Коэффициенты матрицы : BT.709

Аудио #1
Идентификатор : 2
Формат : AC-3
Формат/Информация : Audio Coding 3
Коммерческое название : Dolby Digital
Идентификатор кодека : A_AC3
Продолжительность : 1 ч. 35 м.
Вид битрейта : Постоянный
Битрейт : 448 Кбит/сек
Каналы : 6 каналов
ChannelLayout : L R C LFE Ls Rs
Частота : 48,0 КГц
Частота кадров : 31,250 кадров/сек (1536 SPF)
Битовая глубина : 16 бит
Метод сжатия : С потерями
Размер потока : 306 Мбайт (6%)
Язык : Russian
Default : Да
Forced : Нет

Аудио #2
Идентификатор : 3
Формат : AC-3
Формат/Информация : Audio Coding 3
Коммерческое название : Dolby Digital
Идентификатор кодека : A_AC3
Продолжительность : 1 ч. 35 м.
Вид битрейта : Постоянный
Битрейт : 384 Кбит/сек
Каналы : 6 каналов
ChannelLayout : L R C LFE Ls Rs
Частота : 48,0 КГц
Частота кадров : 31,250 кадров/сек (1536 SPF)
Битовая глубина : 16 бит
Метод сжатия : С потерями
Размер потока : 262 Мбайт (5%)
Заголовок : Амальгама
Язык : Russian

Default : Нет
Forced : Нет

Аудио #3
Идентификатор : 4
Формат : AC-3
Формат/Информация : Audio Coding 3
Коммерческое название : Dolby Digital
Идентификатор кодека : A_AC3
Продолжительность : 1 ч. 35 м.
Вид битрейта : Постоянный
Битрейт : 256 Кбит/сек
Каналы : 2 канала
ChannelLayout : L R
Частота : 48,0 КГц
Частота кадров : 31,250 кадров/сек (1536 SPF)
Битовая глубина : 16 бит
Метод сжатия : С потерями
Размер потока : 175 Мбайт (3%)
Язык : Russian

Default : Нет
Forced : Нет

Текст
Идентификатор : 5
Формат : UTF-8
Идентификатор кодека : S_TEXT/UTF8
Идентификатор кодека/Информация : UTF-8 Plain Text
Язык : Russian
Default : Да
Forced : Нет

Меню
00:00:00.000 : en:Глава 1
00:04:59.000 : en:Глава 2
00:10:21.000 : en:Глава 3
00:16:45.000 : en:Глава 4
00:22:24.000 : en:Глава 5
00:28:22.000 : en:Глава 6
00:33:37.000 : en:Глава 7
00:39:21.000 : en:Глава 8
00:44:59.000 : en:Глава 9
00:50:41.000 : en:Глава 10
00:56:22.000 : en:Глава 11
01:02:28.000 : en:Глава 12
01:08:49.000 : en:Глава 13
01:14:25.000 : en:Глава 14
01:19:56.000 : en:Глава 15
01:26:49.000 : en:Глава 16
01:31:44.000 : en:Глава 17
------------------------------------------------------------------------
    x264 [info]: frame I:1056 Avg QP:18.20 size:192929
    x264 [info]: frame P:37340 Avg QP:19.65 size:102969
    x264 [info]: frame B:145664 Avg QP:21.43 size: 31588
    x264 [info]: consecutive B-frames: 1.4% 2.2% 6.8% 10.1% 19.5% 50.0% 6.3% 1.0% 1.5% 1.0% 0.1%
-----------------------------------
Общее
Уникальный идентификатор : 208179625178540966969772908439691893095 (0x9C9DEFF91215386BB0A1604955009967)
Полное имя : D:DVDБРАТ_1997-2000-WEB-DLRip 720p_KORSARБрат2_2000-WEB-DLRip 720p_KORSAR.mkv
Формат : Matroska
Версия формата : Version 2
Размер файла : 8,66 Гбайт
Продолжительность : 2 ч. 2 м.
Общий поток : 10,1 Мбит/сек
Название фильма : Брат2_2000-WEB-DLRip 720p_KORSAR
Дата кодирования : UTC 2019-05-15 03:36:56
Программа кодирования : mkvmerge v5.8.0 ('No Sleep / Pillow') built on Sep 2 2012 15:37:04
Библиотека кодирования : libebml v1.2.3 + libmatroska v1.3.0

Видео
Идентификатор : 1
Формат : AVC
Формат/Информация : Advanced Video Codec
Профиль формата : High@L4.1
Настройки формата : CABAC / 9 Ref Frames
Параметр CABAC формата : Да
Параметр RefFrames формата : 9 кадров
Идентификатор кодека : V_MPEG4/ISO/AVC
Продолжительность : 2 ч. 2 м.
Битрейт : 9200 Кбит/сек
Ширина : 1280 пикселей
Высота : 720 пикселей
Соотношение сторон : 16:9
Режим частоты кадров : Постоянный
Частота кадров : 25,000 кадров/сек
Цветовое пространство : YUV
Субдискретизация насыщенности : 4:2:0
Битовая глубина : 8 бит
Тип развёртки : Прогрессивная
Бит/(Пиксели*Кадры) : 0.399
Размер потока : 7,89 Гбайт (91%)
Библиотека кодирования : x264 core 152 r2851kMod ba24899
Настройки программы : cabac=1 / ref=9 / deblock=1:-2:-2 / analyse=0x3:0x113 / me=umh / subme=10 / psy=1 / fade_compensate=0.00 / psy_rd=0.95:0.10 / mixed_ref=1 / me_range=40 / chroma_me=1 / trellis=2 / 8x8dct=1 / cqm=0 / deadzone=21,11 / fast_pskip=1 / chroma_qp_offset=-3 / threads=12 / lookahead_threads=3 / sliced_threads=0 / nr=0 / decimate=1 / interlaced=0 / bluray_compat=0 / constrained_intra=0 / bframes=10 / b_pyramid=2 / b_adapt=2 / b_bias=0 / direct=1 / weightb=1 / open_gop=0 / weightp=2 / keyint=250 / keyint_min=25 / scenecut=40 / intra_refresh=0 / rc=crf / mbtree=0 / crf=18.6000 / qcomp=0.63 / qpmin=0 / qpmax=30 / qpstep=4 / ip_ratio=1.40 / pb_ratio=1.30 / aq=1:0.90
Язык : English
Default : Да
Forced : Нет
Цветовой диапазон : Limited
Основные цвета : BT.709
Характеристики трансфера : BT.709
Коэффициенты матрицы : BT.709

Аудио #1
Идентификатор : 2
Формат : AC-3
Формат/Информация : Audio Coding 3
Коммерческое название : Dolby Digital
Идентификатор кодека : A_AC3
Продолжительность : 2 ч. 2 м.
Вид битрейта : Постоянный
Битрейт : 448 Кбит/сек
Каналы : 6 каналов
ChannelLayout : L R C LFE Ls Rs
Частота : 48,0 КГц
Частота кадров : 31,250 кадров/сек (1536 SPF)
Битовая глубина : 16 бит
Метод сжатия : С потерями
Размер потока : 393 Мбайт (4%)
Язык : Russian

Default : Нет
Forced : Нет

Аудио #2
Идентификатор : 3
Формат : AC-3
Формат/Информация : Audio Coding 3
Коммерческое название : Dolby Digital
Идентификатор кодека : A_AC3
Продолжительность : 2 ч. 2 м.
Вид битрейта : Постоянный
Битрейт : 256 Кбит/сек
Каналы : 2 канала
ChannelLayout : L R
Частота : 48,0 КГц
Частота кадров : 31,250 кадров/сек (1536 SPF)
Битовая глубина : 16 бит
Метод сжатия : С потерями
Размер потока : 225 Мбайт (3%)
Язык : Russian
Default : Нет
Forced : Нет

Текст
Идентификатор : 4
Формат : UTF-8
Идентификатор кодека : S_TEXT/UTF8
Идентификатор кодека/Информация : UTF-8 Plain Text
Язык : Russian
Default : Нет
Forced : Нет

Меню
00:00:00.000 : en:Chapter 1
00:11:41.840 : en:Chapter 2
00:25:06.760 : en:Chapter 3
00:38:12.080 : en:Chapter 4
00:48:59.920 : en:Chapter 5
01:00:31.480 : en:Chapter 6
01:10:15.400 : en:Chapter 7
01:16:00.600 : en:Chapter 8
01:24:48.200 : en:Chapter 9
01:36:15.680 : en:Chapter 10
01:49:49.480 : en:Chapter 11
01:55:43.400 : en:Chapter 12
скриншот   скриншот   скриншот   скриншот   скриншот   скриншот  
Освежил картинку, вытащил убитые полутона, во второй части убрал сильную зернистость и местами перешарп.
Делать сравнения в предыдущим вариантом смысла нет, ибо там всё плохо по сравнению с этим рипом, т.к. разные исходники.
ЗЫ
Во избежание лишних вопросов по весу и битрейту, то только вытащить полутона требуется не менее 1 гига дополнительного битрейта, а далее ещё налетает на шарп, дебандеры и прочее, плюс чтобы их вообще не было, предоставлены логи квантов.
piratbit.pw



Скачать Брат: Дилогия через торрент https://b.radikal.ru/b20/1905/22/7a6a50130eaf.png Скачать фильм Брат: Дилогия через торрент бесплантно в хорошем качестве Описание: Демобилизованный из армии, Данила Багров вернулся в родной городок. Но скучная жизнь российской провинции не устраивала его, и он ... 10 10 11
Info! Золотая раздача, скачанное не засчитывается.
Торрент: Зарегистрирован [2019-07-05 15:22] · скачан: 107 раз
Статус: √ проверено
Размер: 13.64 GB
Как cкачать? Как скачать Брат: Дилогия через торрент | qTorrent

% Раздел Тема Автор DL S | L
Сборники на DVD и Сиквелы [DVDrip, WEB-DLRip, HDrip, BDRip] [ 2.92 GB ] Брат / Брат 2 [Дилогия] [1997-2000 WEB-DLRip] Оригинал [] Twi7ter Скачать
1 | 0
Сборники на DVD и Сиквелы [DVDrip, WEB-DLRip, HDrip, BDRip] [ 4.13 GB ] Брат / Брат 2 [Дилогия] [1997-2000 DVDRip-AVC] Ворон Скачать
1 | 1
Зарубежные Мультфильмы (WEB-DL 720p, 1080p) [ 3.31 GB ] Братец медвежонок: Дилогия / Brother Bear: Dilogy [2003 2006 мультфильм HDTVRip 720p] ACFIORENTINA Скачать
1 | 0

28-11-2019 20:33  

Отключить всю рекламу на сайте

    Дорогой пользователь! Огромная просьба, поблагодарите релизера, оцените раздачу и оставьте свои комментарий, если Вы скачали Брат: Дилогия через торрент бесплатно! Внесите свою лепту в развитие PiratBit!
    Комментировать посты могут только пользователи прошедшие не сложную регистрацию
    Показать сообщения:    

    Брат: Дилогия через торрент
    Скачать бесплатно Брат: Дилогия
    Брат: Дилогия скачать торрент
    Брат: Дилогия смотреть онлайн
    Cкачать фильм Брат: Дилогия бесплатно
    Брат: Дилогия скачать торрент в хорошем качестве
    Брат: Дилогия смотреть онлайн бесплатно в хорошем качестве


    Вы не можете начинать темы
    Вы не можете отвечать на сообщения
    Вы не можете редактировать свои сообщения
    Вы не можете удалять свои сообщения
    Вы не можете голосовать в опросах
    Вы не можете прикреплять файлы к сообщениям
    Вы можете скачивать файлы