Ссылка на приватное зеркало нашего сайта всего за 1$. Внимание количество ограничено!!!

2 сезон

iTunes

iTunes

1

iTunes

iTunes

iTunes

WEBRip

iTunes

30
pack

Новость дня

ВАЖНО

!!Акция!!

Alien_RageХит недели

RePack

Horizon Zero Dawn

ИГРА 18+

pack

RePack

jed

!!Акция!!

Alien_Rage

RePack

fifa19

RePack

Assassins Creed: Odyssey

RePack

NEED FOR SPEED™ PAYBACK

4 сезон

9 сезон

Бесстыжие 9 сезон

Все сериалы

все сериалы на PB.wtf

RePack

FAR CRY 5
  

Спасти Ленинград (Алексей Козлов) [2019, драма, военный, BDRip 1080p] [Лицензия] piratbit.pw

Спасти Ленинград через торрент piratbit.pw

Размер: 7.9 GB | Добавлен: 1 год 2 мес. назад | Торрент скачан:181 раз
Скачать  

02-07-2019 02:01 Спасти Ленинград Скачать торрент  

Спасти Ленинград

Год выпуска: 2019
Страна: Россия
Жанр: драма, военный
Продолжительность: 01:37:14
Перевод: Не требуется (русский)
Субтитры: Русские
Режиссер: Алексей Козлов
В ролях:

Мария Мельникова (Настя), Андрей Миронов-Удалов (Костя), Гела Месхи (Вадим Петручик, следователь НКВД), Анастасия Мельникова (Мария Николаевна, мать Насти), Валерий Дегтярь (Александр Наумович, отец Насти), Марина Комарова (Анастасия Александровна), Виталий Кищенко (Николай Горелов, отец Кости), Алексей Шевченков (Ерофеев), Борис Щербаков (начальник штаба), Инга Оболдина (Галочка), Есения Раевская (Померанцева), Сергей Жарков (Гена Бакин)
Описание:
Сентябрь 1941 года. Юные влюбленные Костя и Настя волею обстоятельств оказываются на барже, которая должна вывезти людей из блокадного Ленинграда. Ночью судно попадает в шторм и терпит бедствие, на месте трагедии первыми оказываются вовсе не спасатели, а вражеские самолеты.
Рейтинг:

Качество: BDRip 1080p
Формат: MKV
Видео: MPEG-4 AVC, 9482 Kбит/с, 1920x804, 24 кадр/с
Аудио 1: AC3, 6 ch, 640 Kbps - Русский
Аудио 2: DTS, 6 ch, 1509 Кбит/с - Русский
Навигация по главам: есть

Общее
Уникальный идентификатор : 214219408439071997917116589059514292944 (0xA12928475082CD22AFE02EE1E25FDAD0)
Полное имя : D:\Загрузки\Spasti.Leningrad.2019.x264.BDRip.(1080p).OlLanDGroup.mkv
Формат : Matroska
Версия формата : Version 4 / Version 2
Размер файла : 7,90 Гбайт
Продолжительность : 1 ч. 37 м.
Общий поток : 11,6 Мбит/сек
Название фильма : Спасти Ленинград.2019.Rip by: ollan
Дата кодирования : UTC 2019-07-01 23:28:58
Программа кодирования : mkvmerge v6.5.0 ('Isn't she lovely') built on Oct 20 2013 12:50:05
Библиотека кодирования : libebml v1.3.0 + libmatroska v1.4.1
Обложка : Yes
Attachments : Cover - Spasti.Leningrad..png

Видео
Идентификатор : 1
Формат : AVC
Формат/Информация : Advanced Video Codec
Профиль формата : High@L4.1
Настройки формата : CABAC / 5 Ref Frames
Параметр CABAC формата : Да
Параметр ReFrames формата : 5 кадров
Идентификатор кодека : V_MPEG4/ISO/AVC
Продолжительность : 1 ч. 37 м.
Битрейт : 9482 Кбит/сек
Ширина : 1920 пикселей
Высота : 804 пикселя
Соотношение сторон : 2,40:1
Режим частоты кадров : Постоянный
Частота кадров : 24,000 кадра/сек
Цветовое пространство : YUV
Субдискретизация насыщенности : 4:2:0
Битовая глубина : 8 бит
Тип развёртки : Прогрессивная
Бит/(Пиксели*Кадры) : 0.256
Размер потока : 6,28 Гбайт (80%)
Библиотека кодирования : x264 core 146 r2538 121396c
Настройки программы : cabac=1 / ref=5 / deblock=1:-3:-3 / analyse=0x3:0x133 / me=umh / subme=11 / psy=1 / psy_rd=0.95:0.05 / mixed_ref=1 / me_range=64 / chroma_me=1 / trellis=2 / 8x8dct=1 / cqm=0 / deadzone=21,11 / fast_pskip=0 / chroma_qp_offset=-3 / threads=12 / lookahead_threads=3 / sliced_threads=0 / nr=0 / decimate=0 / interlaced=0 / bluray_compat=0 / constrained_intra=0 / bframes=10 / b_pyramid=2 / b_adapt=2 / b_bias=0 / direct=3 / weightb=1 / open_gop=0 / weightp=2 / keyint=240 / keyint_min=23 / scenecut=40 / intra_refresh=0 / rc_lookahead=40 / rc=2pass / mbtree=0 / bitrate=9482 / ratetol=1.0 / qcomp=0.60 / qpmin=0 / qpmax=69 / qpstep=4 / cplxblur=20.0 / qblur=0.5 / vbv_maxrate=50000 / vbv_bufsize=62500 / nal_hrd=none / filler=0 / ip_ratio=1.40 / pb_ratio=1.30 / aq=1:1.00
Язык : Russian
Default : Да
Forced : Нет

Аудио #1
Идентификатор : 2
Формат : AC-3
Формат/Информация : Audio Coding 3
Идентификатор кодека : A_AC3
Продолжительность : 1 ч. 37 м.
Вид битрейта : Постоянный
Битрейт : 640 Кбит/сек
Каналы : 6 каналов
Расположение каналов : Front: L C R, Side: L R, LFE
Частота : 48,0 КГц
Частота кадров : 31,250 кадров/сек (1536 SPF)
Битовая глубина : 16 бит
Метод сжатия : С потерями
Размер потока : 445 Мбайт (6%)
Заголовок : Лицензия
Язык : Russian
Service kind : Complete Main
Default : Да
Forced : Нет

Аудио #2
Идентификатор : 3
Формат : DTS
Формат/Информация : Digital Theater Systems
Идентификатор кодека : A_DTS
Продолжительность : 1 ч. 37 м.
Вид битрейта : Постоянный
Битрейт : 1509 Кбит/сек
Каналы : 6 каналов
Расположение каналов : Front: L C R, Side: L R, LFE
Частота : 48,0 КГц
Частота кадров : 93,750 кадра/сек (512 SPF)
Битовая глубина : 24 бит
Метод сжатия : С потерями
Размер потока : 1,02 Гбайт (13%)
Заголовок : Лицензия
Язык : Russian
Default : Нет
Forced : Нет

Текст #1
Идентификатор : 4
Формат : UTF-8
Идентификатор кодека : S_TEXT/UTF8
Идентификатор кодека/Информация : UTF-8 Plain Text
Заголовок : Forced
Язык : Russian
Default : Да
Forced : Нет

Текст #2
Идентификатор : 5
Формат : UTF-8
Идентификатор кодека : S_TEXT/UTF8
Идентификатор кодека/Информация : UTF-8 Plain Text
Заголовок : Full
Язык : Russian
Default : Нет
Forced : Нет

Меню
00:00:00.000 : de:Chapter 01
00:03:01.750 : de:Chapter 02
00:09:04.625 : de:Chapter 03
00:15:37.333 : de:Chapter 04
00:22:33.750 : de:Chapter 05
00:30:36.625 : de:Chapter 06
00:34:29.833 : de:Chapter 07
00:38:24.541 : de:Chapter 08
00:43:42.250 : de:Chapter 09
00:48:45.916 : de:Chapter 10
00:53:19.875 : de:Chapter 11
00:58:40.916 : de:Chapter 12
01:07:26.041 : de:Chapter 13
01:13:26.750 : de:Chapter 14
01:18:02.541 : de:Chapter 15
01:22:38.416 : de:Chapter 16
01:26:42.583 : de:Chapter 17
01:30:54.708 : de:Chapter 18
01:37:13.708 : de:Chapter 19
piratbit.pw



Скачать Спасти Ленинград через торрент https://b.radikal.ru/b04/1907/6e/9a6fe8aa552b.png Скачать фильм Спасти Ленинград через торрент бесплантно в хорошем качестве Описание: Сентябрь 1941 года. Юные влюбленные Костя и Настя волею обстоятельств оказываются на барже, которая должна вывезти людей из ... 10 10 9
Торрент: Зарегистрирован [2019-07-02 02:01] · скачан: 181 раз
Статус: √ проверено
Размер: 7.9 GB
Как cкачать? Как скачать Спасти Ленинград через торрент | qTorrent

% Раздел Тема Автор DL S | L
Наши новые фильмы 2018-2019 [ 1.46 GB ] Спасти Ленинград [2019 военный BDRip] [Русский] [] Twi7ter Скачать
7 | 0
Наши новые фильмы 2018-2019 [ 746 MB ] Спасти Ленинград [2019 военный BDRip-AVC] sokol_ok Скачать
7 | 0
Наши фильмы (HD, WEB-DL 720p, 1080p) [ 4.19 GB ] Спасти Ленинград [2019 военный BDRip 720p] [] - ExKinoRay Enigma2010 Скачать
7 | 0
Наши новые фильмы 2018-2019 [ 1.48 GB ] Спасти Ленинград [2019 военный BDRip-AVC] sokol_ok Скачать
5 | 0
Наши фильмы (Blu-ray, BD-Remux, HDDVD) [ 29.11 GB ] Спасти Ленинград [2019 военный BDRemux 1080p] [] sheker187 Скачать
1 | 0
Наши фильмы (HD, WEB-DL 720p, 1080p) [ 2.88 GB ] Спасти Ленинград [2019 военный WEB-DLRip 720p] - ExKinoRay Enigma2010 Скачать
4 | 0
Наши фильмы (HD, WEB-DL 720p, 1080p) [ 3.3 GB ] Спасти Ленинград [2019 военный WEB-DL 1080p] killermax2013 Скачать
2 | 0

28-11-2019 20:33  

Отключить всю рекламу на сайте

    Дорогой пользователь! Огромная просьба, поблагодарите релизера, оцените раздачу и оставьте свои комментарий, если Вы скачали Спасти Ленинград через торрент бесплатно! Внесите свою лепту в развитие PiratBit!
    Комментировать посты могут только пользователи прошедшие не сложную регистрацию
    Показать сообщения:    

    Спасти Ленинград через торрент
    Скачать бесплатно Спасти Ленинград
    Спасти Ленинград скачать торрент
    Спасти Ленинград смотреть онлайн
    Cкачать фильм Спасти Ленинград бесплатно
    Спасти Ленинград скачать торрент в хорошем качестве
    Спасти Ленинград смотреть онлайн бесплатно в хорошем качестве


    Вы не можете начинать темы
    Вы не можете отвечать на сообщения
    Вы не можете редактировать свои сообщения
    Вы не можете удалять свои сообщения
    Вы не можете голосовать в опросах
    Вы не можете прикреплять файлы к сообщениям
    Вы можете скачивать файлы