1 сезон

1 сезон

iTunes

1

КиноПоиск HD

Кинопоиск HD

iTunes

13

1 сезон

RePack

30

Ultimate

ВАЖНО

ИГРА 18+

pack

RePack

MK11
pack

Легкие деньги

RePack

jed

RePack

fifa19

RePack

RDR2

RePack

NEED FOR SPEED™ PAYBACK

4 сезон

9 сезон

Бесстыжие 9 сезон

Все сериалы

все сериалы на PB.wtf

RePack

FAR CRY 5
  
Magnet ссылка

Дочь для Дьявола / To the Devil a Daughter (Питер Сайкс) [1976 г., ужасы, триллер, BDRip] AVO (Сергей Визгунов) piratbit.pw

Скачать  

27-06-2019 19:26 Дочь для Дьявола Скачать торрент  

Дочь для Дьявола / To the Devil a Daughter Год выпуска: 1976

Страна: Великобритания, Германия (ФРГ)

Жанр: Ужасы, триллер

Продолжительность: 01:33:00

Перевод: Авторский (одноголосый) - Сергей Визгунов

Режиссер: Питер Сайкс

rating

В ролях: Ричард Уидмарк, Кристофер Ли, Настасья Кински, Онор Блэкман, Денхолм Эллиотт, Майкл Гудлифф, Ева Мария Майнеке, Энтони Валентайн, Дерек Фрэнсис, Изабелла Тележиньска

Описание: Американский писатель-оккультист пытается спасти душу молодой женщины, которую терроризирует группа сатанистов, возглавляемых отлученным от церкви священником. Девушку планируют использовать в качестве посланницы Дьявола на Земле...
Доп. информация: Настасья Кински снялась полностью обнажённой, несмотря на то, что ещё была несовершеннолетней.
Качество: BDRip
Формат: AVI
Видео: XviD, 2031 Кбит/с, 720x432, 23.976 Кадр/с
Аудио: Русский, AC3, 2 ch, 192 Кбит/с
Видео
Идентификатор : 0
Формат : MPEG-4 Visual
Профиль формата : Advanced Simple@L5
Настройки формата : BVOP1 / Custom Matrix
Параметр BVOP формата : 1
Параметр QPel формата : Нет
Параметр GMC формата : Без точки перехода
Параметр матрицы формата : Выборочная
Идентификатор кодека : XVID
Идентификатор кодека/Подсказка : XviD
Продолжительность : 1 ч. 32 м.
Битрейт : 2031 Кбит/сек
Ширина : 720 пикселей
Высота : 432 пикселя
Соотношение сторон : 5:3
Частота кадров : 23,976 (24000/1001) кадра/сек
Цветовое пространство : YUV
Субдискретизация насыщенности : 4:2:0
Битовая глубина : 8 бит
Тип развёртки : Прогрессивная
Метод сжатия : С потерями
Бит/(Пиксели*Кадры) : 0.272
Размер потока : 1,32 Гбайт (91%)
Библиотека кодирования : XviD 65

Аудио
Идентификатор : 1
Формат : AC-3
Формат/Информация : Audio Coding 3
Коммерческое название : Dolby Digital
Идентификатор кодека : 2000
Продолжительность : 1 ч. 32 м.
Вид битрейта : Постоянный
Битрейт : 192 Кбит/сек
Каналы : 2 канала
Channel layout : L R
Частота : 48,0 КГц
Частота кадров : 31,250 кадров/сек (1536 SPF)
Битовая глубина : 16 бит
Метод сжатия : С потерями
Размер потока : 128 Мбайт (9%)
Выравнивание : Разделение по промежуткам
Продолжительность промежутка : 42 мс. (1,00 видеокадр)
Время предзагрузки промежутка : 500 мс.
ServiceKind/String : Complete Main

скриншот   скриншот   скриншот   скриншот   скриншот  

piratbit.pw



Торрент не зареган: Не зарегистрирован ||
Добавлен: 2019-06-27 19:20
Скачано: 0 раз

28-11-2019 20:33  

Отключить всю рекламу на сайте

    Дорогой пользователь! Огромная просьба, поблагодарите релизера, оцените раздачу и оставьте свои комментарий, если Вы скачали Дочь для Дьявола через торрент бесплатно! Внесите свою лепту в развитие PiratBit!
    Комментировать посты могут только пользователи прошедшие не сложную регистрацию
    Показать сообщения:    

    Дочь для Дьявола через торрент
    Скачать бесплатно Дочь для Дьявола
    Дочь для Дьявола скачать торрент
    Дочь для Дьявола смотреть онлайн
    Cкачать фильм Дочь для Дьявола бесплатно
    Дочь для Дьявола скачать торрент в хорошем качестве
    Дочь для Дьявола смотреть онлайн бесплатно в хорошем качестве


    Вы не можете начинать темы
    Вы не можете отвечать на сообщения
    Вы не можете редактировать свои сообщения
    Вы не можете удалять свои сообщения
    Вы не можете голосовать в опросах
    Вы не можете прикреплять файлы к сообщениям
    Вы можете скачивать файлы