Ссылка на приватное зеркало нашего сайта всего за 1$. Внимание количество ограничено!!!

2 сезон

iTunes

iTunes

1

iTunes

iTunes

iTunes

WEBRip

iTunes

30
pack

Новость дня

ВАЖНО

!!Акция!!

Alien_RageХит недели

RePack

Horizon Zero Dawn

ИГРА 18+

pack

RePack

jed

!!Акция!!

Alien_Rage

RePack

fifa19

RePack

Assassins Creed: Odyssey

RePack

NEED FOR SPEED™ PAYBACK

4 сезон

9 сезон

Бесстыжие 9 сезон

Все сериалы

все сериалы на PB.wtf

RePack

FAR CRY 5
  

Астерикс и тайное зелье / Astérix: Le secret de la potion magique (Александр Астье, Луи Клиши) [2018, мультфильм, фэнтези, UHD BDRip 2160p] DUB (rus, ukr) [iTunes] piratbit.pw

Астерикс и тайное зелье через торрент piratbit.pw

Размер: 9.93 GB | Добавлен: 1 год 3 мес. назад | Торрент скачан:41 раз
Скачать  

21-06-2019 13:15 Астерикс и тайное зелье Скачать торрент  

Астерикс и тайное зелье / Astérix: Le secret de la potion magique««Срочно требуется друид»»

Год выпуска: 2018
Страна: Франция
Жанр: мультфильм, фэнтези
Продолжительность: 01:24:55
Перевод: Дублированный | iTunes
Субтитры: Русские (Full), Французский
Режиссер: Александр Астье , Луи Клиши
В ролях:

Кристиан Клавье (Astérix, озвучка), Гийом Бриа (Obélix, озвучка), Алекс Лутц (Teleferix, озвучка), Александр Астье (Oursenplus / Huiledolix / Blodimérix, озвучка), Эли Семун (Cubitus, озвучка), Даниэль Месгиш (Sulfurix, озвучка), Бернар Алан (Panoramix, озвучка), Франсуа Морель (Ordralfabétix, озвучка), Лионель Астье (Cetautomatix, озвучка), Флоренс Форести (Bonemine, озвучка), Ethan Astier (Loustix, озвучка), Доминик Бастьен (Bazunix / Caustix, озвучка)
Описание:
Могучие галлы издревле черпали силу в секретном напитке, который готовил великий старец. Но пришла беда, откуда не ждали - почтенный друид свалился с дерева и сломал обе ноги. Теперь Астериксу и Обеликсу предстоит отправиться в опасное путешествие, чтобы отыскать нового друида, достойного постичь рецепт тайного зелья.
Рейтинг:

Качество: UHD BDRip 2160p
Формат: MKV
Видео: HEVC HDR, 15.3 Mбит/с, 3840x1600, 23.976 кадр/с, 10 Бит
Аудио #1: AC-3 | 5.1 | 48 kHz | 384 Кбит/сек | 16 bit | Дубляж (iTunes) | RUS |
Аудио #2: AC-3 | 5.1 | 48 kHz | 384 Кбит/сек | 16 bit | Дубляж (iTunes) | UKR |
Аудио #3: AC-3 | 5.1 | 48 kHz | 640 Кбит/сек | 24 bit | Оригинал | FRE
Навигация по главам: есть

General
Unique ID : 172978560994372690539977273290293171757 (0x822275835B8A764C989FD59F7332D62D)
Complete name : C:\Users\Sheker187\Downloads\Asterix.le.Secret.de.la.Potion.Magique.2018.2160p.BDRip.x265.10bit.HDR.Master5.mkv
Format : Matroska
Format version : Version 4
File size : 9.93 GiB
Duration : 1 h 24 min
Overall bit rate : 16.7 Mb/s
Movie name : Asterix.le.Secret.de.la.Potion.Magique.2018.2160p.BDRip.x265.10bit.HDR.Master5
Encoded date : UTC 2019-06-21 08:54:56
Writing application : mkvmerge v7.9.0 ('Birds') 64bit
Writing library : libebml v1.3.1 + libmatroska v1.4.2

Video
ID : 1
Format : HEVC
Format/Info : High Efficiency Video Coding
Format profile : Main 10@L5.1@High
HDR format : SMPTE ST 2086, HDR10 compatible
Codec ID : V_MPEGH/ISO/HEVC
Duration : 1 h 24 min
Bit rate : 15.3 Mb/s
Width : 3 840 pixels
Height : 1 600 pixels
Display aspect ratio : 2.40:1
Frame rate mode : Constant
Frame rate : 24.000 FPS
Color space : YUV
Chroma subsampling : 4:2:0
Bit depth : 10 bits
Bits/(Pixel*Frame) : 0.104
Stream size : 9.08 GiB (91%)
Title : Asterix.le.Secret.de.la.Potion.Magique.2018.2160p.BDRip.x265.10bit.HDR.Master5
Language : English
Default : Yes
Forced : No
Color range : Limited
Color primaries : BT.2020
Transfer characteristics : PQ
Matrix coefficients : BT.2020 non-constant
Mastering display color primar : Display P3
Mastering display luminance : min: 0.0001 cd/m2, max: 1000 cd/m2
Maximum Content Light Level : 435 cd/m2
Maximum Frame-Average Light Le : 290 cd/m2

Audio #1
ID : 2
Format : AC-3
Format/Info : Audio Coding 3
Commercial name : Dolby Digital
Codec ID : A_AC3
Duration : 1 h 24 min
Bit rate mode : Constant
Bit rate : 384 kb/s
Channel(s) : 6 channels
Channel layout : L R C LFE Ls Rs
Sampling rate : 48.0 kHz
Frame rate : 31.250 FPS (1536 SPF)
Bit depth : 16 bits
Compression mode : Lossy
Stream size : 233 MiB (2%)
Title : iTunes
Language : Russian
Service kind : Complete Main
Default : Yes
Forced : Yes

Audio #2
ID : 3
Format : AC-3
Format/Info : Audio Coding 3
Commercial name : Dolby Digital
Codec ID : A_AC3
Duration : 1 h 24 min
Bit rate mode : Constant
Bit rate : 384 kb/s
Channel(s) : 6 channels
Channel layout : L R C LFE Ls Rs
Sampling rate : 48.0 kHz
Frame rate : 31.250 FPS (1536 SPF)
Bit depth : 16 bits
Compression mode : Lossy
Stream size : 233 MiB (2%)
Title : iTunes
Language : Ukrainian
Service kind : Complete Main
Default : No
Forced : No

Audio #3
ID : 4
Format : AC-3
Format/Info : Audio Coding 3
Commercial name : Dolby Digital
Codec ID : A_AC3
Duration : 1 h 24 min
Bit rate mode : Constant
Bit rate : 640 kb/s
Channel(s) : 6 channels
Channel layout : L R C LFE Ls Rs
Sampling rate : 48.0 kHz
Frame rate : 31.250 FPS (1536 SPF)
Bit depth : 16 bits
Compression mode : Lossy
Stream size : 389 MiB (4%)
Title : Original
Language : French
Service kind : Complete Main
Default : No
Forced : No

Text #1
ID : 5
Format : UTF-8
Codec ID : S_TEXT/UTF8
Codec ID/Info : UTF-8 Plain Text
Duration : 1 h 17 min
Bit rate : 120 b/s
Count of elements : 921
Stream size : 68.6 KiB (0%)
Title : Full
Language : Russian
Default : No
Forced : No

Text #2
ID : 6
Format : PGS
Muxing mode : zlib
Codec ID : S_HDMV/PGS
Codec ID/Info : Picture based subtitle format used on BDs/HD-DVDs
Duration : 1 h 24 min
Bit rate : 15.5 kb/s
Count of elements : 3232
Stream size : 9.41 MiB (0%)
Language : French
Default : No
Forced : No

Menu
00:00:00.000 : fr:Глава 01
00:06:16.042 : fr:Глава 02
00:15:43.250 : fr:Глава 03
00:21:45.167 : fr:Глава 04
00:28:47.792 : fr:Глава 05
00:35:00.000 : fr:Глава 06
00:42:39.458 : fr:Глава 07
00:50:30.333 : fr:Глава 08
00:57:33.708 : fr:Глава 09
01:04:05.458 : fr:Глава 10
01:13:32.000 : fr:Глава 11
01:21:07.333 : fr:Глава 12
piratbit.pw



Скачать Астерикс и тайное зелье через торрент https://b.radikal.ru/b42/1906/f8/c45a4138e0c8.png Скачать фильм Астерикс и тайное зелье через торрент бесплантно в хорошем качестве Описание: Могучие галлы издревле черпали силу в секретном напитке, который готовил великий старец. Но пришла беда, откуда не ждали - ... 10 10 2
Торрент: Зарегистрирован [2019-06-21 13:15] · скачан: 41 раз
Статус: √ проверено
Размер: 9.93 GB
Как cкачать? Как скачать Астерикс и тайное зелье через торрент | qTorrent

% Раздел Тема Автор DL S | L
3D Мультфильмы [ 4.08 GB ] Астерикс и тайное зельев 3D / Astérix: Le secret de la potion magique in 3D [2018 мультфильм BDRip 1080p ] Анаглиф slaventi-69 Скачать
1 | 0
Мультфильмы (48-60 fps) [ 17.6 GB ] Астерикс и тайное зелье / Astérix: Le secret de la potion magique [2018 мультфильм BDRip 1080p 60 fps] DUB sheker187 Скачать
1 | 0
Зарубежные Мультфильмы (BDRip 1080p, 720p, Blu-ray, BD-Remux) [ 7.22 GB ] Астерикс и тайное зелье / Astérix: Le secret de la potion magique [2018 мультфильм BDRip 1080p] DUB bober100 Скачать
3 | 0
Иностранные мультфильмы [ 1.42 GB ] Астерикс и тайное зелье / Astérix: Le secret de la potion magique [2018 мультфильм BDRip] дубляж - Twi7ter Скачать
3 | 0
Ultra HD (UHD: 2K, 4K, 8K) [ 41.32 GB ] Астерикс и тайное зелье / Astérix: Le secret de la potion magique [2018 мультфильм UHD BDRemux 2160p] DUB bober100 Скачать
1 | 0
3D Мультфильмы [ 4.99 GB ] Астерикс и тайное зелье 3Д / Astérix: Le secret de la potion magique 3D [2018 мультфильм BDRip 1080p] [Half OverUnder / Вертикальная анаморфная стереопара] DUB bober100 Скачать
1 | 0
Иностранные мультфильмы [ 1.42 GB ] Астерикс и тайное зелье / Astérix: Le secret de la potion magique [2018 мультфильм BDRip] bober100 Скачать
89 | 2

28-11-2019 20:33  

Отключить всю рекламу на сайте

    Дорогой пользователь! Огромная просьба, поблагодарите релизера, оцените раздачу и оставьте свои комментарий, если Вы скачали Астерикс и тайное зелье через торрент бесплатно! Внесите свою лепту в развитие PiratBit!
    Комментировать посты могут только пользователи прошедшие не сложную регистрацию
    Показать сообщения:    

    Астерикс и тайное зелье через торрент
    Скачать бесплатно Астерикс и тайное зелье
    Астерикс и тайное зелье скачать торрент
    Астерикс и тайное зелье смотреть онлайн
    Cкачать фильм Астерикс и тайное зелье бесплатно
    Астерикс и тайное зелье скачать торрент в хорошем качестве
    Астерикс и тайное зелье смотреть онлайн бесплатно в хорошем качестве


    Вы не можете начинать темы
    Вы не можете отвечать на сообщения
    Вы не можете редактировать свои сообщения
    Вы не можете удалять свои сообщения
    Вы не можете голосовать в опросах
    Вы не можете прикреплять файлы к сообщениям
    Вы можете скачивать файлы