Мега распродажа FORZA HORIZON 4 ULTIMATE+ВСЕ DLC+ОНЛАЙН всего за 499р. 349 руб. (супер цена). Внимание количество ограничено!!!

iTunes

1+1

iTunes

мы

iTunes

1

1 сезон

Чернобыль

1 сезон

Ральф против интернета

Лицензия

ПШазам

8 сезон

Игра престолов

Лицензия

30
pack

ВАЖНО

!!Акция!!

Alien_RageХит недели

RePack

Resident Evil 21

ИГРА 18+

pack

RePack

Metro:Exodus

!!Акция!!

Alien_Rage

RePack

fifa19

RePack

Assassins Creed: Odyssey

RePack

NEED FOR SPEED™ PAYBACK

3 сезон

9 сезон

Бесстыжие 9 сезон

Все сериалы

все сериалы на PB.wtf

RePack

FAR CRY 5
Ребята, катастрофически не хватает 2730р. для оплаты серверов за ИЮНЬ (всвязи с блокировками трафик упал в 3 раза), 1-2р., выручайте.
  

7 самураев / Samurai 7 / Сезон: 1 / Серии: 1-26 из 26 (Тосифуми Такидзава, Тору Ёсида, Футоси Хигасидэ) [2004, аниме, мультфильм, фантастика, боевик, приключения, BDRip 1080p] MVO [СВ-Дубль] piratbit.pw

7 самураев через торрент piratbit.pw

Размер: 14.39 GB | Добавлен: 1 мес. 1 д. назад | Торрент скачан:12 раз
Скачать  

20-06-2019 04:11 7 самураев Скачать торрент  

7 самураев / Samurai 7
Год выпуска: 2004
Страна: Япония
Жанр: аниме, мультфильм, фантастика, боевик, приключения
Продолжительность: ~ 00:26:00
Перевод: Профессиональный (многоголосый) | СВ-Дубль
Субтитры: отсутствуют

Режиссер: Тосифуми Такидзава, Тору Ёсида, Футоси Хигасидэ

rating


В ролях: Масаки Тэрасома, Роми Пак, Тэцу Инада, Тору Кусано, Инукай Дзюндзи, Конг Кувата, Фумико Орикаса, Саито Тива

Описание: Отдалённое будущее, похожая на Землю планета. Разбойники обложили деревеньку непосильным оброком. Оказавшись на грани голодной смерти, жители снаряжают небольшой отряд и отправляют его на поиски самураев, которые могли бы противостоять разбойникам и защитить деревню...

Качество: BDRip 1080p
Формат: MKV

Видео: 1920x1080 (16:9), 23.976 fps, MPEG-4 AVC ~3 576 kbps avg
Аудио: 48.0 kHz, Advanced Audio Codec Low Complexity, 2/0 (L,R) ch, ~192 kbps
скриншот  скриншот  скриншот  

General
Unique ID: 203708759398365310191251433975316603933 (0x9940E14572752690A4C3DBDEC591E41D)
Complete name: Samurai.7.E01.mkv
Format: Matroska
Format version: Version 4
File size: 702 MiB
Duration: 26 min 2 s
Overall bit rate: 3 767 kb/s
Encoded date: UTC 2019-04-19 01:18:28
Writing application: mkvmerge v13.0.0 ('The Juggler') 64bit
Writing library: libebml v1.3.4 + libmatroska v1.4.5

Video
ID: 1
Format: AVC
Format/Info: Advanced Video Codec
Format profile: High 10@L5
Format settings: CABAC / 6 Ref Frames
Format settings, CABAC: Yes
Format settings, ReFrames: 6 frames
Codec ID: V_MPEG4/ISO/AVC
Duration: 26 min 2 s
Bit rate: 3 576 kb/s
Width: 1 920 pixels
Height: 1 080 pixels
Display aspect ratio: 16:9
Frame rate mode: Constant
Frame rate: 23.976 (24000/1001) FPS
Color space: YUV
Chroma subsampling: 4:2:0
Bit depth: 10 bits
Scan type: Progressive
Bits/(Pixel*Frame): 0.072
Stream size: 666 MiB (95%)
Writing library: x264 core 133 r2334 a3ac64b
Encoding settings: cabac=1 / ref=6 / deblock=1:1:1 / analyse=0x3:0x133 / me=umh / subme=6 / psy=1 / psy_rd=0.40:0.00 / mixed_ref=1 / me_range=16 / chroma_me=1 / trellis=2 / 8x8dct=1 / cqm=0 / deadzone=21,11 / fast_pskip=0 / chroma_qp_offset=-2 / threads=6 / lookahead_threads=1 / sliced_threads=0 / nr=0 / decimate=1 / interlaced=0 / bluray_compat=0 / constrained_intra=0 / bframes=5 / b_pyramid=2 / b_adapt=1 / b_bias=0 / direct=1 / weightb=1 / open_gop=0 / weightp=2 / keyint=240 / keyint_min=23 / scenecut=40 / intra_refresh=0 / rc_lookahead=40 / rc=crf / mbtree=1 / crf=18.0 / qcomp=0.60 / qpmin=10 / qpmax=51 / qpstep=4 / ip_ratio=1.40 / aq=1:0.60
Language: Japanese
Default: Yes
Forced: No

Audio
ID: 2
Format: AAC LC
Format/Info: Advanced Audio Codec Low Complexity
Codec ID: A_AAC-2
Duration: 26 min 2 s
Bit rate: 192 kb/s
Channel(s): 2 channels
Channel layout: L R
Sampling rate: 48.0 kHz
Frame rate: 46.875 FPS (1024 SPF)
Compression mode: Lossy
Stream size: 35.3 MiB (5%)
Title: СВ-Дубль
Language: Russian
Default: Yes
Forced: No

piratbit.pw



Скачать 7 самураев через торрент http://d.radikal.ru/d30/1906/4c/7c6d2c41f71a.jpg Скачать фильм 7 самураев через торрент бесплантно в хорошем качестве Описание: Отдалённое будущее, похожая на Землю планета. Разбойники обложили деревеньку непосильным оброком. Оказавшись на грани голодной ... 9.8 10 4
Торрент: Зарегистрирован [2019-06-20 04:11] · скачан: 12 раз
Статус: √ проверено
Размер: 14.39 GB
Как cкачать? Как скачать 7 самураев через торрент | qTorrent


>> Регистрируемся здесь <<






Отзывы и комментарии о схеме читаем и пишем здесь: ---> Отзывы и комментарии о схеме

Новые благодарочки в телеграм довольных пользователей:
скриншот   скриншот   скриншот   скриншот   скриншот
    Дорогой пользователь! Огромная просьба, поблагодарите релизера, оцените раздачу и оставьте свои комментарий, если Вы скачали 7 самураев через торрент бесплатно! Внесите свою лепту в развитие PiratBit!
    Комментировать посты могут только пользователи прошедшие не сложную регистрацию
    Показать сообщения:    

    7 самураев через торрент
    Скачать бесплатно 7 самураев
    7 самураев скачать торрент
    7 самураев смотреть онлайн
    Cкачать фильм 7 самураев бесплатно
    7 самураев скачать торрент в хорошем качестве
    7 самураев смотреть онлайн бесплатно в хорошем качестве


    Вы не можете начинать темы
    Вы не можете отвечать на сообщения
    Вы не можете редактировать свои сообщения
    Вы не можете удалять свои сообщения
    Вы не можете голосовать в опросах
    Вы не можете прикреплять файлы к сообщениям
    Вы можете скачивать файлы