Marvel's Avengers Deluxe Edition (супер цена) 159р. Внимание количество ограничено!!!

2 сезон

iTunes

iTunes

1

iTunes

iTunes

iTunes

WEBRip

iTunes

30
pack

Новость дня

ВАЖНО

!!Акция!!

Alien_RageХит недели

RePack

Horizon Zero Dawn

ИГРА 18+

pack

RePack

jed

!!Акция!!

Alien_Rage

RePack

fifa19

RePack

Assassins Creed: Odyssey

RePack

NEED FOR SPEED™ PAYBACK

4 сезон

9 сезон

Бесстыжие 9 сезон

Все сериалы

все сериалы на PB.wtf

RePack

FAR CRY 5
  

Босс-молокосос / The Boss Baby (Том МакГрат) [2017, мультфильм, комедия, семейный, UHD BDRemux 2160p] DUB [Лицензия] + AVO [А. Карповский] piratbit.pw

Босс-молокосос через торрент piratbit.pw

Размер: 25.53 GB | Добавлен: 1 год 3 мес. назад | Торрент скачан:6 раз
Скачать  

20-06-2019 02:40 Босс-молокосос Скачать торрент  

Босс-молокосос / The Boss Baby««Прирождённый лидер»»

Год выпуска: 2017
Страна: США
Жанр: мультфильм, комедия, семейный
Продолжительность: 01:37:31
Перевод 1: Профессиональный (дублированный) Blu-Ray
Перевод 2: Авторский (одноголосый закадровый) А. Карповский
Субтитры: русские (forced, full), английские (forced, full)

Режиссер: Том МакГрат
В ролях:

Алек Болдуин (Boss Baby, озвучка), Майлз Кристофер Бакши (Tim, озвучка), Тоби Магуайр (Adult Tim / рассказчик, озвучка), Стив Бушеми (Francis Francis, озвучка), Джимми Киммел (Dad, озвучка), Лиза Кудроу (Mom, озвучка), Конрад Вернон (Eugene, озвучка), Джеймс МакГрат (Wizzie / Elvis Impersonator, озвучка), Дэвид Сорен (Jimbo, озвучка), ВивиЭнн Йи (Staci, озвучка), Эрик Белл мл. (Triplets, озвучка), Эди Мирман (Big Boss Baby, озвучка)
Описание:
Эта актуальная во все времена история для взрослых и детей рассказывается от лица семилетнего брата новорожденного - фантазера Тима, который ревнует его к родителям. Но главный герой - совсем не простой ребенок, он обладает лидерскими задатками, уже носит деловые костюмы и во всем видит бизнес-задачу.
Рейтинг:

MPAA: PG - Рекомендуется присутствие родителей
Качество: UHD BDRemux 2160p
Формат: MKV
Видео: MPEG-H HEVC Video / 26772 kbps / 3840x2160 / 23,976 fps / 16:9 / Main 10 @ Level 5.1 @ High / 4:2:0 / 10 bits / HDR10 / Limited Range / BT.2020
Аудио 1: Russian DTS / 5.1 / 48 kHz / 768 kbps / 24-bit |Dub, Blu-Ray|
Аудио 2: Russian DTS-HD Master Audio / 7.1 / 48 kHz / 4624 kbps / 24-bit (DTS Core: 5.1-ES / 48 kHz / 1509 kbps / 24-bit) |А. Карповский|
Аудио 3: English Dolby Atmos/TrueHD Audio / 7.1-Atmos / 48 kHz / 5238 kbps / 24-bit |original|
Аудио 4: English AC3 Core: 5.1 / 48 kHz / 640 kbps |original|
*Навигация по главам: есть

Общее
Уникальный идентификатор : 45720750331897158936588642928956366346 (0x22657F07E842BC3C991E6A340D5D5E0A)
Полное имя : H:\UHD\Босс-молокосос.2017.UHD.Blu-Ray.Remux.2160p.mkv
Формат : Matroska
Версия формата : Version 4
Размер файла : 25,5 Гбайт
Продолжительность : 1 ч. 37 м.
Режим общего битрейта : Переменный
Общий поток : 37,5 Мбит/сек
Дата кодирования : UTC 2019-06-18 14:22:36
Программа кодирования : mkvmerge v34.0.0 ('Sight and Seen') 64-bit
Библиотека кодирования : libebml v1.3.7 + libmatroska v1.5.0
Attachments : poster.jpg

Видео
Идентификатор : 1
Формат : HEVC
Формат/Информация : High Efficiency Video Coding
Коммерческое название : HDR10
Профиль формата : Main 10@L5.1@High
Идентификатор кодека : V_MPEGH/ISO/HEVC
Продолжительность : 1 ч. 37 м.
Битрейт : 26,8 Мбит/сек
Ширина : 3840 пикселей
Высота : 2160 пикселей
Соотношение сторон : 16:9
Режим частоты кадров : Постоянный
Частота кадров : 23,976 (24000/1001) кадра/сек
Цветовое пространство : YUV
Субдискретизация насыщенности : 4:2:0 (Type 2)
Битовая глубина : 10 бит
Бит/(Пиксели*Кадры) : 0.135
Размер потока : 18,2 Гбайт (71%)
Default : Да
Forced : Нет
Цветовой диапазон : Limited
Основные цвета : BT.2020
Характеристики трансфера : PQ
Коэффициенты матрицы : BT.2020 non-constant
MasteringDisplay_ColorPrimaries : Display P3
MasteringDisplay_Luminance : min: 0.0050 cd/m2, max: 1000 cd/m2

Аудио #1
Идентификатор : 2
Формат : DTS
Формат/Информация : Digital Theater Systems
Идентификатор кодека : A_DTS
Продолжительность : 1 ч. 37 м.
Вид битрейта : Постоянный
Битрейт : 768 Кбит/сек
Каналы : 6 каналов
Channel layout : C L R Ls Rs LFE
Частота : 48,0 КГц
Частота кадров : 93,750 кадра/сек (512 SPF)
Битовая глубина : 24 бит
Метод сжатия : С потерями
Размер потока : 536 Мбайт (2%)
Заголовок : Dub, Blu-Ray
Язык : Russian
Default : Да
Forced : Нет

Аудио #2
Идентификатор : 3
Формат : DTS ES XLL
Формат/Информация : Digital Theater Systems
Коммерческое название : DTS-HD Master Audio
Идентификатор кодека : A_DTS
Продолжительность : 1 ч. 37 м.
Вид битрейта : Переменный
Битрейт : 4624 Кбит/сек
Каналы : 8 каналов
Channel layout : C L R Ls Rs LFE Lb Rb
Частота : 48,0 КГц
Частота кадров : 93,750 кадра/сек (512 SPF)
Битовая глубина : 24 бит
Метод сжатия : Без потерь
Размер потока : 3,15 Гбайт (12%)
Заголовок : А. Карповский
Язык : Russian
Default : Нет
Forced : Нет

Аудио #3
Идентификатор : 4
Формат : MLP FBA 16-ch
Формат/Информация : Meridian Lossless Packing FBA with 16-channel presentation
Коммерческое название : Dolby TrueHD with Dolby Atmos
Идентификатор кодека : A_TRUEHD
Продолжительность : 1 ч. 37 м.
Вид битрейта : Переменный
Битрейт : 4598 Кбит/сек
Максимальный битрейт : 8229 Кбит/сек
Каналы : 8 каналов
Channel layout : L R C LFE Ls Rs Lb Rb
Частота : 48,0 КГц
Частота кадров : 1200,000 кадров/сек (40 SPF)
Метод сжатия : Без потерь
Размер потока : 3,13 Гбайт (12%)
Язык : English
Default : Нет
Forced : Нет
Number of dynamic objects : 13
Bed channel count : 1 канал
Bed channel configuration : LFE

Аудио #4
Идентификатор : 5
Формат : AC-3
Формат/Информация : Audio Coding 3
Коммерческое название : Dolby Digital
Идентификатор кодека : A_AC3
Продолжительность : 1 ч. 37 м.
Вид битрейта : Постоянный
Битрейт : 640 Кбит/сек
Каналы : 6 каналов
Channel layout : L R C LFE Ls Rs
Частота : 48,0 КГц
Частота кадров : 31,250 кадров/сек (1536 SPF)
Битовая глубина : 16 бит
Метод сжатия : С потерями
Размер потока : 446 Мбайт (2%)
Язык : English
ServiceKind/String : Complete Main
Default : Нет
Forced : Нет

Текст #1
Идентификатор : 6
Формат : UTF-8
Идентификатор кодека : S_TEXT/UTF8
Идентификатор кодека/Информация : UTF-8 Plain Text
Продолжительность : 1 ч. 19 м.
Битрейт : 0 бит/сек
ElementCount : 21
Размер потока : 437 байт (0%)
Заголовок : forced
Язык : Russian
Default : Да
Forced : Нет

Текст #2
Идентификатор : 7
Формат : UTF-8
Идентификатор кодека : S_TEXT/UTF8
Идентификатор кодека/Информация : UTF-8 Plain Text
Продолжительность : 1 ч. 36 м.
Битрейт : 93 бит/сек
ElementCount : 1587
Размер потока : 65,9 Кбайт (0%)
Заголовок : full
Язык : Russian
Default : Нет
Forced : Нет

Текст #3
Идентификатор : 8
Формат : UTF-8
Идентификатор кодека : S_TEXT/UTF8
Идентификатор кодека/Информация : UTF-8 Plain Text
Продолжительность : 17 с. 101 мс.
Битрейт : 63 бит/сек
ElementCount : 9
Размер потока : 136 байт (0%)
Заголовок : forced
Язык : English
Default : Нет
Forced : Нет

Текст #4
Идентификатор : 9
Формат : UTF-8
Идентификатор кодека : S_TEXT/UTF8
Идентификатор кодека/Информация : UTF-8 Plain Text
Продолжительность : 1 ч. 36 м.
Битрейт : 59 бит/сек
ElementCount : 1568
Размер потока : 42,1 Кбайт (0%)
Язык : English
Default : Нет
Forced : Нет

Меню
00:00:00.000 : :Chapter 01
00:03:45.892 : :Chapter 02
00:08:58.287 : :Chapter 03
00:11:45.913 : :Chapter 04
00:14:59.565 : :Chapter 05
00:19:38.218 : :Chapter 06
00:22:52.788 : :Chapter 07
00:28:27.247 : :Chapter 08
00:30:26.115 : :Chapter 09
00:33:45.481 : :Chapter 10
00:36:57.256 : :Chapter 11
00:39:18.355 : :Chapter 12
00:42:35.344 : :Chapter 13
00:46:20.611 : :Chapter 14
00:51:37.719 : :Chapter 15
00:53:25.285 : :Chapter 16
00:56:28.718 : :Chapter 17
00:59:35.405 : :Chapter 18
01:04:03.172 : :Chapter 19
01:08:15.758 : :Chapter 20
01:11:29.910 : :Chapter 21
01:16:25.247 : :Chapter 22
01:23:10.110 : :Chapter 23
01:27:36.960 : :Chapter 24
piratbit.pw



Скачать Босс-молокосос через торрент https://c.radikal.ru/c18/1906/17/7852d8300803.png Скачать фильм Босс-молокосос через торрент бесплантно в хорошем качестве Описание: Эта актуальная во все времена история для взрослых и детей рассказывается от лица семилетнего брата новорожденного - фантазера ... 5 10 1
Торрент: Зарегистрирован [2019-06-20 02:40] · скачан: 6 раз
Статус: √ проверено
Размер: 25.53 GB
Как cкачать? Как скачать Босс-молокосос через торрент | qTorrent

% Раздел Тема Автор DL S | L
R.G.Resident - Мультфильмы, Видео [ 3.45 GB ] Босс-молокосос / The Boss Baby [2017 мультфильм BDRip 720p] - - R.G.Resident schultz Скачать
1 | 0
Зарубежные Мультфильмы (BDRip 1080p, 720p, Blu-ray, BD-Remux) [ 3.46 GB ] Босс-молокосос / The Boss Baby [2017 Мультфильм BDRip 1080p HEVC ()] Мичман37 Скачать
1 | 0
Мультсериалы [ 17.26 GB ] Босс-молокосос: Снова в деле / The Boss Baby: Back in Business / Сезоны: 1-2 / Серии: 1-26 из 26 [2018 мультфильм WEB-DL 1080p] MVO [AlexFilm] bober100 Скачать
2 | 0
Фильмы с авторской озвучкой [ 1.46 GB ] Босс-молокосос / The Boss Baby [2017 Мультфильм BDRip] [AVO] killermax2013 Скачать
1 | 0
Ultra HD (UHD: 2K, 4K, 8K) [ 22.17 GB ] Босс-молокосос / The Boss Baby [2017 Мультфильм UHD BDRemux 2160p] DUB [ Blu-ray CEE] bober100 Скачать
1 | 0
Иностранные мультфильмы [ 746 MB ] Босс-молокосос / The Boss Baby [2017 мультфильм BDRip-AVC] sokol_ok Скачать
1 | 0
Иностранные мультфильмы [ 2.15 GB ] Босс-молокосос / The Boss Baby [2017 мультфильм BDRip-AVC] sokol_ok Скачать
2 | 0

28-11-2019 20:33  

Отключить всю рекламу на сайте

    Дорогой пользователь! Огромная просьба, поблагодарите релизера, оцените раздачу и оставьте свои комментарий, если Вы скачали Босс-молокосос через торрент бесплатно! Внесите свою лепту в развитие PiratBit!
    Комментировать посты могут только пользователи прошедшие не сложную регистрацию
    Показать сообщения:    

    Босс-молокосос через торрент
    Скачать бесплатно Босс-молокосос
    Босс-молокосос скачать торрент
    Босс-молокосос смотреть онлайн
    Cкачать фильм Босс-молокосос бесплатно
    Босс-молокосос скачать торрент в хорошем качестве
    Босс-молокосос смотреть онлайн бесплатно в хорошем качестве


    Вы не можете начинать темы
    Вы не можете отвечать на сообщения
    Вы не можете редактировать свои сообщения
    Вы не можете удалять свои сообщения
    Вы не можете голосовать в опросах
    Вы не можете прикреплять файлы к сообщениям
    Вы можете скачивать файлы