Marvel's Avengers Deluxe Edition (супер цена) 159р. Внимание количество ограничено!!!

2 сезон

iTunes

iTunes

1

iTunes

iTunes

iTunes

WEBRip

iTunes

30
pack

Новость дня

ВАЖНО

!!Акция!!

Alien_RageХит недели

RePack

Horizon Zero Dawn

ИГРА 18+

pack

RePack

jed

!!Акция!!

Alien_Rage

RePack

fifa19

RePack

Assassins Creed: Odyssey

RePack

NEED FOR SPEED™ PAYBACK

4 сезон

9 сезон

Бесстыжие 9 сезон

Все сериалы

все сериалы на PB.wtf

RePack

FAR CRY 5
  

ЛЕГО Фильм 2 / The Lego Movie 2: The Second Part (Майк Митчелл) [2019, мультфильм, мюзикл, фэнтези, UHD BDRemux 2160p] DUB (rus, ukr) [Лицензия] piratbit.pw

ЛЕГО Фильм 2 через торрент piratbit.pw

Размер: 44.55 GB | Добавлен: 1 год 3 мес. назад | Торрент скачан:5 раз
Скачать  

19-06-2019 10:18 ЛЕГО Фильм 2 Скачать торрент  

ЛЕГО Фильм 2 / The Lego Movie 2: The Second Part«Они придут с миром»

Год выпуска: 2019
Страна: Дания, Норвегия, Австралия, США
Жанр: мультфильм, мюзикл, фэнтези, боевик, комедия, приключения, семейный
Продолжительность: 01:47:09
Перевод: Дублированный | Лицензия
Субтитры: Русские (Forced, full), украинские (Forced), английские
Режиссер: Майк Митчелл
В ролях:

Крис Пратт (Emmet Brickowski / Rex Dangervest, озвучка), Элизабет Бэнкс (Wyldstyle / Lucy, озвучка), Уилл Арнетт (Batman, озвучка), Тиффани Хэддиш (Queen Watevra Wa'Nabi, озвучка), Стефани Беатриз (General Mayhem / Sweet Mayhem, озвучка), Элисон Бри (Unikitty / Ultrakatty, озвучка), Ник Офферман (MetalBeard, озвучка), Чарли Дэй (Benny, озвучка), Майя Рудольф (Mom), Уилл Феррелл (President Business / Dad), Джэдон Сэнд (Finn, озвучка), Бруклин Принс (Bianca, озвучка)
Описание:
Прошло пять лет с тех пор, как все было прекрасно, и теперь жители пластмассового мира столкнулись с новой невероятной угрозой - вторженцами LEGO DUPLO
Рейтинг:

MPAA: PG - Рекомендуется присутствие родителей
Качество: UHD BDRemux 2160p
Формат: MKV
Видео: HEVC HDR, 54.7 Mбит/с, 3840x2160, 23.976 кадр/с
Аудио: 48 kHz, AC3, 5.1, 448 Kbps | Лицензия | RUS |
Аудио: 48 kHz, AC3, 2.0, 160 Kbps | iTunes | UKR |
Аудио: 48 kHz, TrueHD, 7.1, 3526 Kbps | Оригинал | ENG |
Аудио: 48 kHz, AC3, 5.1, 640 Kbps | Оригинал | ENG |
Навигация по главам: есть

Общее
Уникальный идентификатор : 214114853799234458317861360767330628565 (0xA11505563AB0B95F97BD1A2CF34733D5)
Полное имя : D:\Мои раздачи\Передел\The.Lego.Movie.2.The.2019.2160p.UHD.Blu-Ray.Remux.x265.10bit.HDR.Master5.mkv
Формат : Matroska
Версия формата : Version 4 / Version 2
Размер файла : 44,5 Гбайт
Продолжительность : 1 ч. 47 м.
Режим общего битрейта : Переменный
Общий поток : 59,5 Мбит/сек
Название фильма : The.Lego.Movie.2.The.2019.2160p.UHD.Blu-Ray.Remux.x265.10bit.HDR.Master5
Дата кодирования : UTC 2019-06-19 06:52:28
Программа кодирования : mkvmerge v7.9.0 ('Birds') 64bit
Библиотека кодирования : libebml v1.3.1 + libmatroska v1.4.2

Видео
Идентификатор : 1
Формат : HEVC
Формат/Информация : High Efficiency Video Coding
Коммерческое название : HDR10
Профиль формата : Main 10@L5.1@High
Идентификатор кодека : V_MPEGH/ISO/HEVC
Продолжительность : 1 ч. 47 м.
Битрейт : 54,7 Мбит/сек
Ширина : 3840 пикселей
Высота : 2160 пикселей
Соотношение сторон : 16:9
Режим частоты кадров : Постоянный
Частота кадров : 23,976 (24000/1001) кадра/сек
Цветовое пространство : YUV
Субдискретизация насыщенности : 4:2:0 (Type 2)
Битовая глубина : 10 бит
Бит/(Пиксели*Кадры) : 0.275
Размер потока : 40,9 Гбайт (92%)
Заголовок : The.Lego.Movie.2.The.2019.2160p.UHD.Blu-Ray.Remux.x265.10bit.HDR.Master5
Библиотека кодирования : ATEME Titan File 3.9.0 (4.9.0.0)
Язык : English
Default : Да
Forced : Нет
Цветовой диапазон : Limited
Основные цвета : BT.2020
Характеристики трансфера : PQ
Коэффициенты матрицы : BT.2020 non-constant
MasteringDisplay_ColorPrimaries : Display P3
MasteringDisplay_Luminance : min: 0.0050 cd/m2, max: 4000 cd/m2
MaxCLL : 3848 cd/m2
MaxFALL : 370 cd/m2

Аудио #1
Идентификатор : 2
Формат : AC-3
Формат/Информация : Audio Coding 3
Идентификатор кодека : A_AC3
Продолжительность : 1 ч. 47 м.
Вид битрейта : Постоянный
Битрейт : 448 Кбит/сек
Каналы : 6 каналов
Расположение каналов : Front: L C R, Side: L R, LFE
Частота : 48,0 КГц
Частота кадров : 31,250 кадров/сек (1536 SPF)
Битовая глубина : 16 бит
Метод сжатия : С потерями
Размер потока : 343 Мбайт (1%)
Заголовок : DUB | Лицензия
Язык : Russian
ServiceKind/String : Complete Main
Default : Да
Forced : Нет

Аудио #2
Идентификатор : 3
Формат : AC-3
Формат/Информация : Audio Coding 3
Идентификатор кодека : A_AC3
Продолжительность : 1 ч. 47 м.
Вид битрейта : Постоянный
Битрейт : 160 Кбит/сек
Каналы : 2 канала
Расположение каналов : Front: L R
Частота : 48,0 КГц
Частота кадров : 31,250 кадров/сек (1536 SPF)
Битовая глубина : 16 бит
Метод сжатия : С потерями
Размер потока : 123 Мбайт (0%)
Заголовок : iTunes
Язык : Ukrainian
ServiceKind/String : Complete Main
Default : Нет
Forced : Нет

Аудио #3
Идентификатор : 4
Формат : TrueHD
Профиль формата : TrueHD+Atmos / TrueHD
Идентификатор кодека : A_TRUEHD
Продолжительность : 1 ч. 47 м.
Вид битрейта : Переменный
Битрейт : 3526 Кбит/сек
Максимальный битрейт : 5280 Кбит/сек
Каналы : Object Based / 8 каналов
Расположение каналов : Object Based / Front: L C R, Side: L R, Back: L R, LFE
Частота : / 48,0 КГц
Частота кадров : 1200,000 кадров/сек (40 SPF)
Метод сжатия : Без потерь
Размер потока : 2,64 Гбайт (6%)
Заголовок : Original
Язык : English
Default : Нет
Forced : Нет

Аудио #4
Идентификатор : 5
Формат : AC-3
Формат/Информация : Audio Coding 3
Идентификатор кодека : A_AC3
Продолжительность : 1 ч. 47 м.
Вид битрейта : Постоянный
Битрейт : 640 Кбит/сек
Каналы : 6 каналов
Расположение каналов : Front: L C R, Side: L R, LFE
Частота : 48,0 КГц
Частота кадров : 31,250 кадров/сек (1536 SPF)
Битовая глубина : 16 бит
Метод сжатия : С потерями
Размер потока : 491 Мбайт (1%)
Язык : English
ServiceKind/String : Complete Main
Default : Нет
Forced : Нет

Текст #1
Идентификатор : 6
Формат : UTF-8
Идентификатор кодека : S_TEXT/UTF8
Идентификатор кодека/Информация : UTF-8 Plain Text
Продолжительность : 1 ч. 45 м.
Битрейт : 5 бит/сек
ElementCount : 41
Размер потока : 3,90 Кбайт (0%)
Заголовок : Forced
Язык : Russian
Default : Да
Forced : Да

Текст #2
Идентификатор : 7
Формат : UTF-8
Идентификатор кодека : S_TEXT/UTF8
Идентификатор кодека/Информация : UTF-8 Plain Text
Продолжительность : 1 ч. 46 м.
Битрейт : 128 бит/сек
ElementCount : 1905
Размер потока : 100 Кбайт (0%)
Заголовок : Full
Язык : Russian
Default : Нет
Forced : Нет

Текст #3
Идентификатор : 8
Формат : UTF-8
Идентификатор кодека : S_TEXT/UTF8
Идентификатор кодека/Информация : UTF-8 Plain Text
Продолжительность : 1 ч. 32 м.
Битрейт : 5 бит/сек
ElementCount : 40
Размер потока : 3,73 Кбайт (0%)
Заголовок : Forced
Язык : Ukrainian
Default : Нет
Forced : Нет

Текст #4
Идентификатор : 9
Формат : UTF-8
Идентификатор кодека : S_TEXT/UTF8
Идентификатор кодека/Информация : UTF-8 Plain Text
Продолжительность : 1 ч. 46 м.
Битрейт : 90 бит/сек
ElementCount : 2152
Размер потока : 70,2 Кбайт (0%)
Заголовок : Full
Язык : English
Default : Нет
Forced : Нет

Меню
00:00:00.000 : en:Chapter 01
00:04:15.881 : en:Chapter 02
00:12:35.046 : en:Chapter 03
00:15:09.951 : en:Chapter 04
00:21:57.733 : en:Chapter 05
00:29:50.330 : en:Chapter 06
00:36:22.680 : en:Chapter 07
00:44:47.977 : en:Chapter 08
00:50:50.506 : en:Chapter 09
00:57:05.255 : en:Chapter 10
01:01:07.163 : en:Chapter 11
01:09:48.351 : en:Chapter 12
01:17:31.939 : en:Chapter 13
01:21:58.122 : en:Chapter 14
01:26:49.538 : en:Chapter 15
01:34:06.266 : en:Chapter 16
01:38:30.571 : en:Chapter 17
piratbit.pw



Скачать ЛЕГО Фильм 2 через торрент https://a.radikal.ru/a34/1904/43/424b09b92cb1.jpg Скачать фильм ЛЕГО Фильм 2 через торрент бесплантно в хорошем качестве Описание: Прошло пять лет с тех пор, как все было прекрасно, и теперь жители пластмассового мира столкнулись с новой невероятной угрозой - ... 5 10 1
Торрент: Зарегистрирован [2019-06-19 10:18] · скачан: 5 раз
Статус: √ проверено
Размер: 44.55 GB
Как cкачать? Как скачать ЛЕГО Фильм 2 через торрент | qTorrent

% Раздел Тема Автор DL S | L
Мультфильмы (48-60 fps) [ 10.62 GB ] ЛЕГО Фильм 2 / The Lego Movie 2: The Second Part [2019 мультфильм мюзикл BDRip 1080p 60 fps] DUB sheker187 Скачать
1 | 0
Зарубежные Мультфильмы (BDRip 1080p, 720p, Blu-ray, BD-Remux) [ 5.63 GB ] ЛЕГО Фильм-2 / The Lego Movie 2: The Second Part [2019 мультфильм мюзикл BDRip 720p] DUB [] bober100 Скачать
1 | 0
Ultra HD (UHD: 2K, 4K, 8K) [ 13.49 GB ] ЛЕГО Фильм 2 / The Lego Movie 2: The Second Part [2019 мультфильм мюзикл UHD BDRip 2160p] [SDR] DUB [] sheker187 Скачать
1 | 0
Зарубежные Мультфильмы (BDRip 1080p, 720p, Blu-ray, BD-Remux) [ 10.27 GB ] ЛЕГО Фильм-2 / The Lego Movie 2: The Second Part [2019 мультфильм мюзикл BDRip 1080p] DUB [] bober100 Скачать
1 | 0
3D Мультфильмы [ 6.95 GB ] ЛЕГО Фильм-2 3Д / The Lego Movie 2: The Second Part 3D [2019 мультфильм мюзикл BDRip 1080p] [Half OverUnder] DUB [] bober100 Скачать
1 | 0
Зарубежные Мультфильмы (BDRip 1080p, 720p, Blu-ray, BD-Remux) [ 44.97 GB ] ЛЕГО Фильм-2 / The Lego Movie 2: The Second Part [2019 мультфильм мюзикл Blu-ray EUR 1080p] DUB [] bober100 Скачать
1 | 0
Иностранные мультфильмы [ 1.67 GB ] ЛЕГО Фильм-2 / The Lego Movie 2: The Second Part [2019 мультфильм мюзикл BDRip-AVC] DUB [] bober100 Скачать
1 | 0

28-11-2019 20:33  

Отключить всю рекламу на сайте

    Дорогой пользователь! Огромная просьба, поблагодарите релизера, оцените раздачу и оставьте свои комментарий, если Вы скачали ЛЕГО Фильм 2 через торрент бесплатно! Внесите свою лепту в развитие PiratBit!
    Комментировать посты могут только пользователи прошедшие не сложную регистрацию
    Показать сообщения:    

    ЛЕГО Фильм 2 через торрент
    Скачать бесплатно ЛЕГО Фильм 2
    ЛЕГО Фильм 2 скачать торрент
    ЛЕГО Фильм 2 смотреть онлайн
    Cкачать фильм ЛЕГО Фильм 2 бесплатно
    ЛЕГО Фильм 2 скачать торрент в хорошем качестве
    ЛЕГО Фильм 2 смотреть онлайн бесплатно в хорошем качестве


    Вы не можете начинать темы
    Вы не можете отвечать на сообщения
    Вы не можете редактировать свои сообщения
    Вы не можете удалять свои сообщения
    Вы не можете голосовать в опросах
    Вы не можете прикреплять файлы к сообщениям
    Вы можете скачивать файлы