новый адрес
Ссылка на приватное зеркало всего за 1$. Внимание количество ограничено!!!

iTunes

1+1

iTunes

мы

iTunes

1

iTunes

Чернобыль

iTunes

Ральф против интернета

Лицензия

ПШазам

Лицензия

Оно 2

Лицензия

30
pack

Вам бонус

ВАЖНО

!!Акция!!

Alien_RageХит недели

RePack

Resident Evil 21

ИГРА 18+

pack

RePack

jed

!!Акция!!

Alien_Rage

RePack

fifa19

RePack

Assassins Creed: Odyssey

RePack

NEED FOR SPEED™ PAYBACK

3 сезон

9 сезон

Бесстыжие 9 сезон

Все сериалы

все сериалы на PB.wtf

RePack

FAR CRY 5
Ребята, катастрофически не хватает 1900р. для оплаты серверов за Октябрь (всвязи с блокировками трафик упал в 3 раза), 1-2р., выручайте.
  

Я не такой! Я не такая! (Руслан Паушу) [2019, комедия, драма, WEB-DL 1080p] [iTunes] piratbit.pw

Я не такой! Я не такая! через торрент piratbit.pw

Размер: 2.89 GB | Добавлен: 3 мес. 27 д. назад | Торрент скачан:142 раза
Скачать  

19-06-2019 06:13 Я не такой! Я не такая! Скачать торрент  

Я не такой! Я не такая!
Год выпуска: 2019
Страна: Россия
Жанр: комедия, драма
Продолжительность: 01:23:40
Перевод: Не требуется | iTunes
Субтитры: отсутствуют

Режиссер: Руслан Паушу



В ролях: Филипп Рейнхардт, Анна Чурина, Кристина Бабушкина, Рената Пиотровски, Анатолий Руденко, Иван Кокорин, Наталья Лесниковская, Тимур Боканча, Елена Драпеко, Валентина Мазунина

Описание: Три подруги - Вера, Люба и Надя встречаются в загородном доме, чтобы отметить помолвку Нади, но во время празднования они узнают, что их любимые мужчины пользуются услугами одной и той же проститутки.

И кажется, что женский идеальный мир разрушен навсегда. Отчаявшись, девушки решаются вызвать разлучницу на дом под видом клиенток, и девичник обретает совершенно неожиданный поворот.

Качество: WEB-DL 1080p
Формат: MKV

Видео: MPEG-4 AVC, 1920x806, 4462 kbps, 24.000 fps
Аудио: Russian: AC3, 48.0 KHz, 6 ch, 384 kbps - iTunes
скриншот  скриншот  скриншот  скриншот  

скриншот  скриншот  скриншот  скриншот  

General
Unique ID : 210743295485186000397601169437326951790 (0x9E8BAEAD87FFDE10860CD325E1C5C56E)
Complete name : YA.ne.takoj!YA.ne.takaya!2019.WEB-DL.1080p.mkv
Format : Matroska
Format version : Version 2
File size : 2.89 GiB
Duration : 1 h 23 min
Overall bit rate : 4 944 kb/s
Encoded date : UTC 2019-07-25 16:58:33
Writing application : mkvmerge v5.8.0 ('No Sleep / Pillow') built on Sep 2 2012 15:37:04
Writing library : libebml v1.2.3 + libmatroska v1.3.0

Video
ID : 1
Format : AVC
Format/Info : Advanced Video Codec
Format profile : High@L4
Format settings, CABAC : Yes
Format settings, RefFrames : 5 frames
Codec ID : V_MPEG4/ISO/AVC
Duration : 1 h 23 min
Bit rate : 4 462 kb/s
Width : 1 920 pixels
Height : 806 pixels
Display aspect ratio : 2.40:1
Frame rate mode : Constant
Frame rate : 24.000 FPS
Color space : YUV
Chroma subsampling : 4:2:0
Bit depth : 8 bits
Scan type : Progressive
Bits/(Pixel*Frame) : 0.120
Stream size : 2.61 GiB (90%)
Language : English
Default : Yes
Forced : No
Color range : Limited
Color primaries : BT.709
Transfer characteristics : BT.709
Matrix coefficients : BT.709

Audio
ID : 2
Format : AC-3
Format/Info : Audio Coding 3
Format settings, Endianness : Big
Codec ID : A_AC3
Duration : 1 h 23 min
Bit rate mode : Constant
Bit rate : 384 kb/s
Channel(s) : 6 channels
Channel positions : Front: L C R, Side: L R, LFE
Sampling rate : 48.0 kHz
Frame rate : 31.250 FPS (1536 SPF)
Bit depth : 16 bits
Compression mode : Lossy
Stream size : 230 MiB (8%)
Title : iTunes
Language : Russian
Service kind : Complete Main
Default : Yes
Forced : No

Menu
00:00:00.000 : en:Глава 1
00:06:13.041 : en:Глава 2
00:13:57.999 : en:Глава 3
00:20:23.374 : en:Глава 4
00:25:42.707 : en:Глава 5
00:32:12.707 : en:Глава 6
00:38:28.582 : en:Глава 7
00:45:37.082 : en:Глава 8
00:51:32.832 : en:Глава 9
00:58:03.748 : en:Глава 10
01:04:43.623 : en:Глава 11
01:12:47.706 : en:Глава 12

piratbit.pw



Скачать Я не такой! Я не такая! через торрент https://i1.imageban.ru/out/2019/07/25/4e0958f64367ad48bf5c4a602b0bb0e7.png Скачать фильм Я не такой! Я не такая! через торрент бесплантно в хорошем качестве Описание: Три подруги - Вера, Люба и Надя встречаются в загородном доме, чтобы отметить помолвку Нади, но во время празднования они узнают, ... 10 10 16
Торрент: Зарегистрирован [2019-07-25 17:03] · скачан: 142 раз
Статус: √ проверено
Размер: 2.89 GB
Как cкачать? Как скачать Я не такой! Я не такая! через торрент | qTorrent

% Раздел Тема Автор DL S | L
Русское любительское видео [ 115 MB ] Я хочу так всегда [2019 Amateur CamRip] Скорпион1976 Скачать
7 | 0
Наши новые фильмы 2018-2019 [ 1.45 GB ] Я не такой! Я не такая! [2019 WEB-DLRip] bober100 Скачать
7 | 0
Наши новые фильмы 2018-2019 [ 1.37 GB ] Я не такой! Я не такая! [2019 WEB-DLRip-AVC] bober100 Скачать
1 | 0
Фильмы 2017 [DVDrip, WEB-DLRip, HDrip] (DUB, MVO) [ 2.18 GB ] Такой же не такой как я / Такой же другой как и я / Same Kind of Different as Me [2017 BDRip-AVC] bober100 Скачать
1 | 0
Фильмы [HD 720p, 1080p] (Хороший звук DUB, MVO) [ 12.42 GB ] Такой же не такой как я / Такой же другой как и я / Same Kind of Different as Me [2017 BDRip 1080p] -Lexx- Скачать
1 | 0
Фильмы 2017 [DVDrip, WEB-DLRip, HDrip] (DUB, MVO) [ 1.41 GB ] Такой же не такой как я / Такой же другой как и я / Same Kind of Different as Me [2017 BDRip] bober100 Скачать
1 | 0
Фильмы [HD 720p, 1080p] (Хороший звук DUB, MVO) [ 5.33 GB ] Такой же не такой как я / Такой же другой как и я / Same Kind of Different as Me [2017 BDRip 720p] bober100 Скачать
1 | 0


>> Переходим по ссылке <<
Автоматически подгузится скрипт который настроит ваш браузер на выигрыш!!
После настройки браузера вероятность выигрыша увеличется в 4.1-4,6 раза.
В течение 6 секунд вам откроется настроенный интерфейс казино, с повышенной вероятностью выигрыша.






Отзывы и комментарии о схеме читаем и пишем здесь: ---> Отзывы и комментарии о схеме

Новые благодарочки в телеграм довольных пользователей:
скриншот   скриншот   скриншот   скриншот   скриншот
    Дорогой пользователь! Огромная просьба, поблагодарите релизера, оцените раздачу и оставьте свои комментарий, если Вы скачали Я не такой! Я не такая! через торрент бесплатно! Внесите свою лепту в развитие PiratBit!
    Комментировать посты могут только пользователи прошедшие не сложную регистрацию
    Показать сообщения:    

    Я не такой! Я не такая! через торрент
    Скачать бесплатно Я не такой! Я не такая!
    Я не такой! Я не такая! скачать торрент
    Я не такой! Я не такая! смотреть онлайн
    Cкачать фильм Я не такой! Я не такая! бесплатно
    Я не такой! Я не такая! скачать торрент в хорошем качестве
    Я не такой! Я не такая! смотреть онлайн бесплатно в хорошем качестве


    Вы не можете начинать темы
    Вы не можете отвечать на сообщения
    Вы не можете редактировать свои сообщения
    Вы не можете удалять свои сообщения
    Вы не можете голосовать в опросах
    Вы не можете прикреплять файлы к сообщениям
    Вы можете скачивать файлы