Marvel's Avengers Deluxe Edition (супер цена) 159р. Внимание количество ограничено!!!

2 сезон

iTunes

iTunes

1

iTunes

iTunes

iTunes

WEBRip

iTunes

30
pack

Новость дня

ВАЖНО

!!Акция!!

Alien_RageХит недели

RePack

Horizon Zero Dawn

ИГРА 18+

pack

RePack

jed

!!Акция!!

Alien_Rage

RePack

fifa19

RePack

Assassins Creed: Odyssey

RePack

NEED FOR SPEED™ PAYBACK

4 сезон

9 сезон

Бесстыжие 9 сезон

Все сериалы

все сериалы на PB.wtf

RePack

FAR CRY 5
  

Обитель зла: Вендетта / Resident Evil: Vendetta (Таканори Цудзимото ) [2017, мультфильм, фантастика, боевик, UHD BDRemux 2160p] DUB [Лицензия] [Dolby Vision TV] piratbit.pw

Обитель зла: Вендетта через торрент piratbit.pw

Размер: 38.99 GB | Добавлен: 1 год 3 мес. назад | Торрент скачан:15 раз
Скачать  

16-06-2019 12:36 Обитель зла: Вендетта Скачать торрент  

Обитель зла: Вендетта / Resident Evil: Vendetta

Год выпуска: 2017
Страна: Япония
Жанр: мультфильм, фантастика, боевик
Продолжительность: 01:37:00
Перевод: Дублированный [Лицензия]
Субтитры: Отсутствуют
Режиссер: Таканори Цудзимото
В ролях:

Кевин Дорман (Chris Redfield, озвучка), Мэттью Мерсер (Leon S. Kennedy, озвучка), Эрин Кехилл (Rebecca Chambers, озвучка), Джон ДеМита (Glenn Arias, озвучка), Фред Таташиор (Diego Gomez, озвучка), Кристина Валенсуела (Maria Gomez, озвучка), Ариф С. Кинчен (D.C., озвучка), Арни Пантойя (Damian, озвучка), Кари Уолгрен (Nadia, озвучка), Александр Полински (Patricio, озвучка), Джейсон Фаунт (Aaron, озвучка), Карен Страссман (Kathy White, озвучка)
Описание:
Специалист B.S.A.A. Крис Редфилд помогает правительственному агенту Леону С. Кеннеди и профессору Ребекке Чемберс из Института биотехнологий. Троице придётся противостоять безумному учёному Эриасу и его армии ходячих мертвецов.
Рейтинг:

MPAA: R - Лицам до 17 лет обязательно присутствие взрослого
Качество: UHD BDRemux 2160p | Dolby Vision TV
Формат: MP4
Видео: HEVC, 56.7 Мбит/с, 3840x2160, 23.976 кадр/с
Аудио: русский / AC3 / 5.1 / 48 kHz / 640 kbps

Данный вид релизов (контейнер MP4) предназначен для встроенного в ТВ (соответственно, с поддержкой DV) плеер.
Т.Е. Можно использовать как USB flash/HDD, так и DLNA / Plex - подобные сервисы/программы. дополнительный-внешний плеер не обязателен.

Внимание!
На моделях LG 2016 возможны сюрпризы "через раз", 2017-2018 должно идти без сюрпризов )
General
Complete name : D:\Resident.Evil.Vendetta.2017.2160p.UHD.BDRemux.2160p.DV.RUS.mp4
Format : iso6
Codec ID : iso6 (dby1/iso6/mp42/isom/msdh)
File size : 39.0 GiB
Duration : 1 h 37 min
Overall bit rate : 57.4 Mb/s
Encoded date : UTC 2019-06-16 07:12:34
Tagged date : UTC 2019-06-16 07:12:34

Video #1
ID : 1
Format : HEVC
Format/Info : High Efficiency Video Coding
Format profile : Main 10@L5.1@High
HDR format : SMPTE ST 2086, HDR10 compatible
Codec ID : hev1
Codec ID/Info : High Efficiency Video Coding
Duration : 1 h 37 min
Bit rate : 56.7 Mb/s
Width : 3 840 pixels
Height : 2 160 pixels
Display aspect ratio : 16:9
Frame rate mode : Constant
Frame rate : 23.976 (24000/1001) FPS
Color space : YUV
Chroma subsampling : 4:2:0 (Type 2)
Bit depth : 10 bits
Bits/(Pixel*Frame) : 0.285
Stream size : 38.5 GiB (99%)
Default : No
Encoded date : UTC 2019-06-16 07:12:34
Tagged date : UTC 2019-06-16 07:12:34
Color range : Limited
Color primaries : BT.2020
Transfer characteristics : PQ
Matrix coefficients : BT.2020 non-constant
Mastering display color primaries : Display P3
Mastering display luminance : min: 0.0050 cd/m2, max: 4000 cd/m2
Codec configuration box : hvcC

Video #2
ID : 2
Format : HEVC
Format/Info : High Efficiency Video Coding
Format profile : Main 10@L5.1@High
HDR format : Dolby Vision, Version 1.0, dvhe.07.06, EL+RPU / SMPTE ST 2086, HDR10 compatible
Codec ID : dvhe
Codec ID/Info : High Efficiency Video Coding with Dolby Vision
Duration : 1 h 37 min
Bit rate : 122 kb/s
Width : 1 920 pixels
Height : 1 080 pixels
Display aspect ratio : 16:9
Frame rate mode : Constant
Frame rate : 23.976 (24000/1001) FPS
Color space : YUV
Chroma subsampling : 4:2:0 (Type 2)
Bit depth : 10 bits
Bits/(Pixel*Frame) : 0.002
Stream size : 84.8 MiB (0%)
Default : No
Encoded date : UTC 2019-06-16 07:12:34
Tagged date : UTC 2019-06-16 07:12:34
Color range : Limited
Color primaries : BT.2020
Transfer characteristics : PQ
Matrix coefficients : BT.2020 non-constant
Mastering display color primaries : Display P3
Mastering display luminance : min: 0.0050 cd/m2, max: 4000 cd/m2
Codec configuration box : hvcC+dvcC

Audio
ID : 3
Format : AC-3
Format/Info : Audio Coding 3
Commercial name : Dolby Digital
Codec ID : ac-3
Duration : 1 h 37 min
Bit rate mode : Constant
Bit rate : 640 kb/s
Channel(s) : 6 channels
Channel layout : L R C LFE Ls Rs
Sampling rate : 48.0 kHz
Frame rate : 31.250 FPS (1536 SPF)
Bit depth : 16 bits
Compression mode : Lossy
Stream size : 445 MiB (1%)
Language : English
Service kind : Complete Main
Default : No
Encoded date : UTC 2019-06-16 07:12:34
Tagged date : UTC 2019-06-16 07:12:34
piratbit.pw



Скачать Обитель зла: Вендетта через торрент https://d.radikal.ru/d43/1906/87/99ade0cab41a.png Скачать фильм Обитель зла: Вендетта через торрент бесплантно в хорошем качестве Описание: Специалист B.S.A.A. Крис Редфилд помогает правительственному агенту Леону С. Кеннеди и профессору Ребекке Чемберс из Института ... 10 10 3
Торрент: Зарегистрирован [2019-06-16 12:36] · скачан: 15 раз
Статус: √ проверено
Размер: 38.99 GB
Как cкачать? Как скачать Обитель зла: Вендетта через торрент | qTorrent

% Раздел Тема Автор DL S | L
Зарубежные Мультфильмы (BDRip 1080p, 720p, Blu-ray, BD-Remux) [ 2.54 GB ] Обитель зла: Вендетта / Resident Evil: Vendetta [2017 Мультфильм BDRip 1080p-HEVC 10bit ] ADVOKAT69 Скачать
1 | 0
Зарубежные Мультфильмы (BDRip 1080p, 720p, Blu-ray, BD-Remux) [ 20.38 GB ] Обитель зла: Вендетта / Resident Evil: Vendetta [2017 Мультфильм BDRemux 1080p] bober100 Скачать
1 | 0
Иностранные мультфильмы [ 2.06 GB ] Обитель зла: Вендетта / Resident Evil: Vendetta [2017 мультфильм BDRip ] - ExKinoRay Enigma2010 Скачать
1 | 0
Иностранные мультфильмы [ 1.46 GB ] Обитель зла: Вендетта / Resident Evil: Vendetta [2017 мультфильм BDRip] - [] Twi7ter Скачать
1 | 0
Иностранные мультфильмы [ 1.42 GB ] Обитель зла: Вендетта / Resident Evil: Vendetta [2017 BDRip-AVC] bober100 Скачать
1 | 0
Зарубежные Мультфильмы (BDRip 1080p, 720p, Blu-ray, BD-Remux) [ 10.75 GB ] Обитель зла: Вендетта / Resident Evil: Vendetta [2017 Мультфильм BDRip 1080p] bober100 Скачать
1 | 0
Иностранные мультфильмы [ 1.93 GB ] Обитель зла: Вендетта / Resident Evil: Vendetta [2017 мультфильм BDRip-AVC ] - ExKinoRay Enigma2010 Скачать
1 | 0

28-11-2019 20:33  

Отключить всю рекламу на сайте

21-06-2019 18:51 Обитель зла: Вендетта Скачать торрент  

а в формате MKV будет?piratbit.pw



    Дорогой пользователь! Огромная просьба, поблагодарите релизера, оцените раздачу и оставьте свои комментарий, если Вы скачали Обитель зла: Вендетта через торрент бесплатно! Внесите свою лепту в развитие PiratBit!
    Комментировать посты могут только пользователи прошедшие не сложную регистрацию
    Показать сообщения:    

    Обитель зла: Вендетта через торрент
    Скачать бесплатно Обитель зла: Вендетта
    Обитель зла: Вендетта скачать торрент
    Обитель зла: Вендетта смотреть онлайн
    Cкачать фильм Обитель зла: Вендетта бесплатно
    Обитель зла: Вендетта скачать торрент в хорошем качестве
    Обитель зла: Вендетта смотреть онлайн бесплатно в хорошем качестве


    Вы не можете начинать темы
    Вы не можете отвечать на сообщения
    Вы не можете редактировать свои сообщения
    Вы не можете удалять свои сообщения
    Вы не можете голосовать в опросах
    Вы не можете прикреплять файлы к сообщениям
    Вы можете скачивать файлы