MEGA SALE -50% FORZA HORIZON 4 ULTIMATE+ВСЕ DLC+ОНЛАЙН всего за 599р. 299 руб. (супер цена). Внимание количество ограничено!!!

iTunes

1+1

iTunes

мы

iTunes

1

iTunes

Чернобыль

iTunes

Ральф против интернета

Лицензия

ПШазам

Лицензия

Игра престолов

Лицензия

30
pack

ВАЖНО

!!Акция!!

Alien_RageХит недели

RePack

Resident Evil 21

ИГРА 18+

pack

RePack

Metro:Exodus

!!Акция!!

Alien_Rage

RePack

fifa19

RePack

Assassins Creed: Odyssey

RePack

NEED FOR SPEED™ PAYBACK

3 сезон

9 сезон

Бесстыжие 9 сезон

Все сериалы

все сериалы на PB.wtf

RePack

FAR CRY 5
Ребята, катастрофически не хватает 7730р. для оплаты серверов за АВГУСТ (всвязи с блокировками трафик упал в 3 раза), 1-2р., выручайте.
  

Плащ и Кинжал / Cloak & Dagger / Сезон: 2 / Серии: 1-10 из 10 (Алекс Гарсиа Лопес, Питер Хор, Эми Канаан Манн) [2019, фантастика, боевик, драма, WEB-DL 720p] DUB [Невафильм] piratbit.pw

Плащ и Кинжал через торрент piratbit.pw

Размер: 10.93 GB | Добавлен: 3 мес. 9 д. назад | Торрент скачан:8 раз
Скачать  

11-06-2019 14:57 Плащ и Кинжал Скачать торрент  

Плащ и Кинжал | Cloak & Dagger Год выпуска: 2019
Страна: США
Жанр: фантастика, боевик, драма
Продолжительность: ~00:50:00
Перевод: Профессиональный (дублированный) | Невафильм
Субтитры: Русские (форсированные), английские (SDH)

Режиссёр: Алекс Гарсиа Лопес, Питер Хор, Эми Канаан Манн

В ролях:

Оливия Холт, Обри Джозеф, Глория Рубен, Дж.Д. Эвермор, Майлз Массенден, Андреа Рот, Эмма Лахана, Ноэль Рени Берси, Уэйн Пер, Карл Лундстедт

Описание:

Молодежный фантастический сериал, созданный по мотивам одноименной серии комиксов Marvel. В качестве одного из продюсеров проекта выступил легендарный Стэн Ли – создатель Человека-паука, Людей Икс, Доктора Стрэнджа, Железного человека, Сорвиголовы, Тора и многих других супергероев. Тэнди Боуэн (Оливия Холт) – красивая девушка, которая промышляет воровством: она мечтает скопить побольше денег, чтобы навсегда сбежать из-под опеки своей эгоистичной матери. Тайрон Джонсон (Обри Джозеф) – замкнутый подросток-афроамериканец, выросший в бедном районе. Случайная встреча на школьной вечеринке изменит жизнь обоих: вскоре Тэнди и Тайрон обнаружат у себя сверхспособности, которыми они пока не в силах управлять. Тэнди способна генерировать световые кинжалы, а Тайрон может перемещаться в пространстве с помощью некой темной энергии. Разгадка удивительных способностей подростков кроется в их общем прошлом – роковой штормовой ночи, когда Тэнди потеряла отца, а Тайрон – брата. Постепенно Тэнди и Тайрон понимают, что им лучше держаться вместе, ведь только так они смогут научиться управлять своими силами.




Качество: WEB-DL 720p
Формат: MKV

Видео: AVC, 1280x720 (16:9), 23.976 fps, ~ 2500 Kbps
Аудио №1: AC3, 48,0 kHz, 6 ch, 384 kbps | Невафильм
Аудио №2: E-AC3, 48,0 kHz, 6 ch, 640 kbps | Original
Релиз от
Отдельная благодарность за помощь в релизе - zgurvas.
01. Неприкаянная энергия | Restless Energy
02. Белые линии | White Lines
03. Собственная тень | Shadow Selves
04. Заячий захват | Rabbit Hold
05. Номограмма | Alignment Chart
06. Обратные стороны | B Sides
07. Звук города викингов | Vikingtown Sound
08. Два игрока | Two Player
09. Блюзовая нота | Blue Note
10. Уровень выше | Level Up
General
Unique ID : 206249876253368573898773598971637289534 (0x9B2A480153C792D29AC63134AFF4523E)
Complete name : F:\Cloak.and.Dagger_s02_720p\Cloak.and.Dagger.s02e01.Restless.Energy.WEB-DL.720p.mkv
Format : Matroska
Format version : Version 4 / Version 2
File size : 1.01 GiB
Duration : 42 min 27 s
Overall bit rate : 3 408 kb/s
Movie name : Cloak & Dagger 02x01 (Restless Energy) - release by Kastiel for EniaHD
Encoded date : UTC 2019-04-06 16:10:22
Writing application : mkvmerge v18.0.0 ('Apricity') 64-bit
Writing library : libebml v1.3.5 + libmatroska v1.4.8

Video
ID : 1
Format : AVC
Format/Info : Advanced Video Codec
Format profile : High@L3.1
Format settings : CABAC / 4 Ref Frames
Format settings, CABAC : Yes
Format settings, ReFrames : 4 frames
Codec ID : V_MPEG4/ISO/AVC
Duration : 42 min 27 s
Bit rate mode : Constant
Bit rate : 2 574 kb/s
Nominal bit rate : 6 000 kb/s
Width : 1 280 pixels
Height : 720 pixels
Display aspect ratio : 16:9
Frame rate mode : Constant
Frame rate : 23.976 (24000/1001) FPS
Color space : YUV
Chroma subsampling : 4:2:0
Bit depth : 8 bits
Scan type : Progressive
Bits/(Pixel*Frame) : 0.117
Stream size : 782 MiB (76%)
Default : Yes
Forced : No
Color range : Limited
Color primaries : BT.709
Transfer characteristics : BT.709
Matrix coefficients : BT.709

Audio #1
ID : 2
Format : AC-3
Format/Info : Audio Coding 3
Codec ID : A_AC3
Duration : 42 min 27 s
Bit rate mode : Constant
Bit rate : 192 kb/s
Channel(s) : 2 channels
Channel positions : Front: L R
Sampling rate : 48.0 kHz
Frame rate : 31.250 FPS (1536 SPF)
Bit depth : 16 bits
Compression mode : Lossy
Stream size : 58.3 MiB (6%)
Title : DD2.0 Невафильм
Language : Russian
Service kind : Complete Main
Default : Yes
Forced : No

Audio #2
ID : 3
Format : E-AC-3
Format/Info : Enhanced Audio Coding 3
Codec ID : A_EAC3
Duration : 42 min 27 s
Bit rate mode : Constant
Bit rate : 640 kb/s
Channel(s) : 6 channels
Channel positions : Front: L C R, Side: L R, LFE
Sampling rate : 48.0 kHz
Frame rate : 187.500 FPS (256 SPF)
Compression mode : Lossy
Stream size : 194 MiB (19%)
Title : DD5.1 Original
Language : English
Service kind : Complete Main
Default : No
Forced : No

Text
ID : 4
Format : UTF-8
Codec ID : S_TEXT/UTF8
Codec ID/Info : UTF-8 Plain Text
Duration : 42 min 19 s
Bit rate : 82 b/s
Count of elements : 793
Stream size : 25.5 KiB (0%)
Title : SDH
Language : English
Default : No
Forced : No
piratbit.pw



Скачать Плащ и Кинжал через торрент https://funkyimg.com/i/2SVHP.jpg Скачать фильм Плащ и Кинжал через торрент бесплантно в хорошем качестве Описание: Молодежный фантастический сериал, созданный по мотивам одноименной серии комиксов Marvel. В качестве одного из продюсеров проекта ... 5 10 1
Торрент: Зарегистрирован [2019-06-11 14:57] · скачан: 8 раз
Статус: √ проверено
Размер: 10.93 GB
Как cкачать? Как скачать Плащ и Кинжал через торрент | qTorrent


>> Регистрируемся здесь <<






Отзывы и комментарии о схеме читаем и пишем здесь: ---> Отзывы и комментарии о схеме

Новые благодарочки в телеграм довольных пользователей:
скриншот   скриншот   скриншот   скриншот   скриншот
    Дорогой пользователь! Огромная просьба, поблагодарите релизера, оцените раздачу и оставьте свои комментарий, если Вы скачали Плащ и Кинжал через торрент бесплатно! Внесите свою лепту в развитие PiratBit!
    Комментировать посты могут только пользователи прошедшие не сложную регистрацию
    Показать сообщения:    

    Плащ и Кинжал через торрент
    Скачать бесплатно Плащ и Кинжал
    Плащ и Кинжал скачать торрент
    Плащ и Кинжал смотреть онлайн
    Cкачать фильм Плащ и Кинжал бесплатно
    Плащ и Кинжал скачать торрент в хорошем качестве
    Плащ и Кинжал смотреть онлайн бесплатно в хорошем качестве


    Вы не можете начинать темы
    Вы не можете отвечать на сообщения
    Вы не можете редактировать свои сообщения
    Вы не можете удалять свои сообщения
    Вы не можете голосовать в опросах
    Вы не можете прикреплять файлы к сообщениям
    Вы можете скачивать файлы