Мега распродажа FORZA HORIZON 4 ULTIMATE+ВСЕ DLC+ОНЛАЙН всего за 499р. 349 руб. (супер цена). Внимание количество ограничено!!!

Лицензия

30

iTunes

мы

iTunes

1

1 сезон

Чернобыль

1 сезон

Ральф против интернета

MVO

Покемон. Детектив Пикачу

8 сезон

Игра престолов

iTunes

1+1

ИГРА 18+

pack

ВАЖНО

!!Акция!!

Alien_RageХит недели

RePack

Resident Evil 21
pack

RePack

Metro:Exodus

!!Акция!!

Alien_Rage

RePack

fifa19

RePack

Assassins Creed: Odyssey

RePack

NEED FOR SPEED™ PAYBACK

3 сезон

9 сезон

Бесстыжие 9 сезон

Все сериалы

все сериалы на PB.wtf

RePack

FAR CRY 5
Ребята, катастрофически не хватает 2730р. для оплаты серверов за МАЙ (всвязи с блокировками трафик упал в 3 раза), 1-2р., выручайте.
  

Незабываемый роман / An Affair to Remember (Лео МакКери) [1957, драма, мелодрама, BDRip 1080p by msltel] 2 x MVO, AVO piratbit.pw

Незабываемый роман через торрент piratbit.pw

Раздают: 1 [ 343 KB/s ]
Размер: 14.27 GB | Добавлен: 6 д. назад | Торрент скачан:3 раза
Скачать  

11-06-2019 10:21 Незабываемый роман Скачать торрент  

Название: Незабываемый роман
Оригинальное название: An Affair to Remember
Год выпуска: 1957
Страна: США
Жанр: драма, мелодрама
Продолжительность: 01:54:48
Перевод: профессиональный многоголосый, авторский

Режиссер: Лео МакКери
В ролях: Кэри Грант, Дебора Керр, Ричард Дэннинг, Нева Паттерсон, Кэтлин Несбитт, Роберт К. Льюис, Чарльз Уоттс, Фортунио Бонанова, Джордж Уинслоу, Дороти Адамс (I), Ричард Аллен, Женевьева Амон, Аль Бэйн, Батч Бернард, Дино Болоньезе, Пол Брэдли, Мэри Кэрролл, Норман Чемпион III, Кэтлин Чарни, Брайан Коркоран, Тони Де Марио, Минта Дарфи, Джуни Эллис, Тереза Эмерсон, Джесслин Фак

О фильме: На круизном судне, следующем из Европы в Нью-Йорк, между бывшей певицей ночного клуба Терри Маккей и привлекательным пользующимся известностью плейбоем Никки Ферранте завязывается роман. Они оба не одиноки, а Никки едет в Америку к своей невесте,но, несмотря на это, они договариваются встретиться через шесть месяцев на верхней смотровой площадке «Эмпайр стейт билдинг», чтобы затем уже не расставаться. Спеша на встречу с Никколо, Терри засматривается на небоскрёб и попадает под машину...



Качество: BDRip 1080p
Формат: MKV
Видео: MPEG-4 AVC, 15.1 Mбит/с, 1920x800
Аудио 1: русский, DTS, 768 kbps, 6 ch, 48 kHz [закадровый многоголосый, Blu-ray EUR]
Аудио 2: русский, AC3, 192 kbps, 2 ch, 48 kHz [закадровый многоголосый, Film Prestige]
Аудио 3: русский, AC3, 192 kbps, 2 ch, 48 kHz [авторский, Андрей Гаврилов]
Аудио 4: английский, DTS, 1509 kbps, 6 ch, 48 kHz [оригинал]
Субтитры 1: русские
Субтитры 2: английские
Главы/чаптеры
Общее
Уникальный идентификатор : 233455579208339592242819631204742474784 (0xAFA1E8B8B0E4372FA262B6F177082C20)
Полное имя : D:\Video\Незабываемый роман.1957.BDRip 1080p by msltel.mkv
Формат : Matroska
Версия формата : Version 4
Размер файла : 14,3 Гбайт
Продолжительность : 1 ч. 54 м.
Общий поток : 17,8 Мбит/сек
Дата кодирования : UTC 2019-06-11 09:07:29
Программа кодирования : mkvmerge v8.2.0 ('World of Adventure') 64bit
Библиотека кодирования : libebml v1.3.1 + libmatroska v1.4.2

Видео
Идентификатор : 1
Формат : AVC
Формат/Информация : Advanced Video Codec
Профиль формата : High@L4.1
Настройки формата : CABAC / 4 Ref Frames
Параметр CABAC формата : Да
Параметр RefFrames формата : 4 кадра
Идентификатор кодека : V_MPEG4/ISO/AVC
Продолжительность : 1 ч. 54 м.
Битрейт : 15,1 Мбит/сек
Ширина : 1920 пикселей
Высота : 800 пикселей
Соотношение сторон : 2,40:1
Режим частоты кадров : Постоянный
Частота кадров : 23,976 (24000/1001) кадра/сек
Цветовое пространство : YUV
Субдискретизация насыщенности : 4:2:0
Битовая глубина : 8 бит
Тип развёртки : Прогрессивная
Бит/(Пиксели*Кадры) : 0.411
Размер потока : 12,1 Гбайт (85%)
Библиотека кодирования : x264 core 157 r2935 545de2f
Настройки программы : cabac=1 / ref=4 / deblock=1:-2:-2 / analyse=0x3:0x113 / me=umh / subme=11 / psy=1 / psy_rd=1.00:0.15 / mixed_ref=1 / me_range=32 / chroma_me=1 / trellis=2 / 8x8dct=1 / cqm=0 / deadzone=21,11 / fast_pskip=0 / chroma_qp_offset=-3 / threads=6 / lookahead_threads=1 / sliced_threads=0 / nr=0 / decimate=1 / interlaced=0 / bluray_compat=0 / constrained_intra=0 / bframes=13 / b_pyramid=2 / b_adapt=2 / b_bias=0 / direct=1 / weightb=1 / open_gop=0 / weightp=2 / keyint=230 / keyint_min=23 / scenecut=40 / intra_refresh=0 / rc_lookahead=40 / rc=crf / mbtree=1 / crf=19.5 / qcomp=0.60 / qpmin=0 / qpmax=69 / qpstep=4 / vbv_maxrate=50000 / vbv_bufsize=62500 / crf_max=0.0 / nal_hrd=none / filler=0 / ip_ratio=1.40 / aq=1:1.00
Язык : English
Default : Да
Forced : Нет

Аудио #1
Идентификатор : 2
Формат : DTS
Формат/Информация : Digital Theater Systems
Идентификатор кодека : A_DTS
Продолжительность : 1 ч. 54 м.
Вид битрейта : Постоянный
Битрейт : 768 Кбит/сек
Каналы : 6 каналов
ChannelLayout : C L R Ls Rs LFE
Частота : 48,0 КГц
Частота кадров : 93,750 кадра/сек (512 SPF)
Битовая глубина : 24 бит
Метод сжатия : С потерями
Размер потока : 631 Мбайт (4%)
Заголовок : MVO Blu-ray EUR
Язык : Russian
Default : Да
Forced : Нет

Аудио #2
Идентификатор : 3
Формат : AC-3
Формат/Информация : Audio Coding 3
Коммерческое название : Dolby Digital
Идентификатор кодека : A_AC3
Продолжительность : 1 ч. 54 м.
Вид битрейта : Постоянный
Битрейт : 192 Кбит/сек
Каналы : 2 канала
ChannelLayout : L R
Частота : 48,0 КГц
Частота кадров : 31,250 кадров/сек (1536 SPF)
Битовая глубина : 16 бит
Метод сжатия : С потерями
Размер потока : 158 Мбайт (1%)
Заголовок : MVO Film Prestige
Язык : Russian
ServiceKind/String : Complete Main
Default : Нет
Forced : Нет

Аудио #3
Идентификатор : 4
Формат : AC-3
Формат/Информация : Audio Coding 3
Коммерческое название : Dolby Digital
Идентификатор кодека : A_AC3
Продолжительность : 1 ч. 54 м.
Вид битрейта : Постоянный
Битрейт : 192 Кбит/сек
Каналы : 2 канала
ChannelLayout : L R
Частота : 48,0 КГц
Частота кадров : 31,250 кадров/сек (1536 SPF)
Битовая глубина : 16 бит
Метод сжатия : С потерями
Размер потока : 158 Мбайт (1%)
Заголовок : Андрей Гаврилов
Язык : Russian
ServiceKind/String : Complete Main
Default : Нет
Forced : Нет

Аудио #4
Идентификатор : 5
Формат : DTS
Формат/Информация : Digital Theater Systems
Идентификатор кодека : A_DTS
Продолжительность : 1 ч. 54 м.
Вид битрейта : Постоянный
Битрейт : 1509 Кбит/сек
Каналы : 6 каналов
ChannelLayout : C L R Ls Rs LFE
Частота : 48,0 КГц
Частота кадров : 93,750 кадра/сек (512 SPF)
Битовая глубина : 24 бит
Метод сжатия : С потерями
Размер потока : 1,21 Гбайт (8%)
Заголовок : original
Язык : English
Default : Нет
Forced : Нет

Текст #1
Идентификатор : 6
Формат : UTF-8
Идентификатор кодека : S_TEXT/UTF8
Идентификатор кодека/Информация : UTF-8 Plain Text
Продолжительность : 1 ч. 54 м.
Битрейт : 73 бит/сек
ElementCount : 1457
Размер потока : 61,3 Кбайт (0%)
Заголовок : русские
Язык : Russian
Default : Нет
Forced : Нет

Текст #2
Идентификатор : 7
Формат : UTF-8
Идентификатор кодека : S_TEXT/UTF8
Идентификатор кодека/Информация : UTF-8 Plain Text
Продолжительность : 1 ч. 54 м.
Битрейт : 66 бит/сек
ElementCount : 1961
Размер потока : 55,6 Кбайт (0%)
Заголовок : английские
Язык : English
Default : Нет
Forced : Нет

Меню
00:00:00.000 : :Chapter 1
00:02:09.754 : :Chapter 2
00:03:52.065 : :Chapter 3
00:05:27.493 : :Chapter 4
00:12:40.968 : :Chapter 5
00:14:10.724 : :Chapter 6
00:23:49.552 : :Chapter 7
00:44:21.116 : :Chapter 8
00:46:49.806 : :Chapter 9
00:51:53.527 : :Chapter 10
00:54:14.084 : :Chapter 11
01:02:48.598 : :Chapter 12
01:10:33.062 : :Chapter 13
01:16:11.066 : :Chapter 14
01:19:20.589 : :Chapter 15
01:23:52.444 : :Chapter 16
01:32:00.932 : :Chapter 17
01:39:24.875 : :Chapter 18
01:42:46.785 : :Chapter 19
01:52:05.343 : :Chapter 20
01:54:48.506 : :Chapter 21
piratbit.pw



Скачать Незабываемый роман через торрент https://d.radikal.ru/d36/1906/72/4db89c64b505.jpg Скачать фильм Незабываемый роман через торрент бесплантно в хорошем качестве О фильме: На круизном судне, следующем из Европы в Нью-Йорк, между бывшей певицей ночного клуба Терри Маккей и привлекательным пользующимся ... 5 10 1
Info! Золотая раздача, скачанное не засчитывается.
Торрент: Зарегистрирован [2019-06-11 10:21] · скачан: 3 раз
Статус: √ проверено
Размер: 14.27 GB
Как cкачать? Как скачать Незабываемый роман через торрент | qTorrent

% Раздел Тема Автор DL S | L
Фильмы [HD 720p, 1080p] (Хороший звук DUB, MVO) [ 5.45 GB ] Незабываемый роман / An Affair to Remember [1957 BDRip 720p by msltel] 2 x MVO AVO msltel Скачать
2 | 0


>> Регистрируемся здесь <<






Отзывы и комментарии о схеме читаем и пишем здесь: ---> Отзывы и комментарии о схеме

Новые благодарочки в телеграм довольных пользователей:
скриншот   скриншот   скриншот   скриншот   скриншот
    Дорогой пользователь! Огромная просьба, поблагодарите релизера, оцените раздачу и оставьте свои комментарий, если Вы скачали Незабываемый роман через торрент бесплатно! Внесите свою лепту в развитие PiratBit!
    Комментировать посты могут только пользователи прошедшие не сложную регистрацию
    Показать сообщения:    

    Незабываемый роман через торрент
    Скачать бесплатно Незабываемый роман
    Незабываемый роман скачать торрент
    Незабываемый роман смотреть онлайн
    Cкачать фильм Незабываемый роман бесплатно
    Незабываемый роман скачать торрент в хорошем качестве
    Незабываемый роман смотреть онлайн бесплатно в хорошем качестве


    Вы не можете начинать темы
    Вы не можете отвечать на сообщения
    Вы не можете редактировать свои сообщения
    Вы не можете удалять свои сообщения
    Вы не можете голосовать в опросах
    Вы не можете прикреплять файлы к сообщениям
    Вы можете скачивать файлы