Мега распродажа FORZA HORIZON 4 ULTIMATE+ВСЕ DLC+ОНЛАЙН всего за 499р. 349 руб. (супер цена). Внимание количество ограничено!!!

Лицензия

30

iTunes

мы

iTunes

1

1 сезон

Чернобыль

1 сезон

Ральф против интернета

MVO

Покемон. Детектив Пикачу

8 сезон

Игра престолов

iTunes

1+1

ИГРА 18+

pack

ВАЖНО

!!Акция!!

Alien_RageХит недели

RePack

Resident Evil 21
pack

RePack

Metro:Exodus

!!Акция!!

Alien_Rage

RePack

fifa19

RePack

Assassins Creed: Odyssey

RePack

NEED FOR SPEED™ PAYBACK

3 сезон

9 сезон

Бесстыжие 9 сезон

Все сериалы

все сериалы на PB.wtf

RePack

FAR CRY 5
Ребята, катастрофически не хватает 2730р. для оплаты серверов за МАЙ (всвязи с блокировками трафик упал в 3 раза), 1-2р., выручайте.
  

Американские животные / American Animals (Барт Лэйтон / Bart Layton) [2018, драма, криминал, BDRip 1080p] MVO (СВ Студия) + Original Eng + Sub ( Eng) piratbit.pw

Американские животные через торрент piratbit.pw

Раздают: 3 [ 0 KB/s ]
Размер: 10.99 GB | Добавлен: 8 д. назад | Торрент скачан:33 раза
Скачать  

10-06-2019 17:59 Американские животные Скачать торрент  

Американские животные / American Animals
Год выпуска: 2018
Страна: Великобритания, США
Жанр: драма, криминал
Продолжительность: 01:56:54
Перевод: Профессиональный (многоголосый) СВ Студия
Субтитры: Английские

Режиссер: Барт Лэйтон / Bart Layton

rating

В ролях: Эван Питерс, Энн Дауд, Барри Кеоган, Блейк Дженнер, Удо Кир, Джаред Абрахамсон, Дрю Старки, Уэйн Дювалл, Лара Грайс, Гэри Басараба

Описание: Основан на реальных событиях. История четырех молодых людей, которые предпринимают попытку совершить одно из самых дерзких ограблений в истории США - похитить одну из самых дорогих книг в мире - «Птицы Америки» Джона Джеймса Одюбона.

Качество: BDRip 1080p
Формат: MKV
Видео кодек: AVC
Аудио кодек: AC3
Видео: 1920x816, ~12200 kbps, 23.976 fps, 0.324
Аудио#1: Русский, 48 kHz, AC3, 3/2 (L,C,R,l,r) + LFE ch, ~640 kbps avg СВ Студия
Аудио#2: Английский, 48 kHz, AC3, 3/2 (L,C,R,l,r) + LFE ch, ~640 kbps avg |Оригинал|
Субтитры: Английские
Реклама: Присутствует звуковая (в конце 10 сек)
скриншот  скриншот  скриншот  скриншот  

Формат : Matroska
Версия формата : Version 4
Размер файла : 11,0 Гбайт
Продолжительность : 1 ч. 56 м.
Общий поток : 13,5 Мбит/сек
Название фильма : American Animals (2018)
Дата кодирования : UTC 2019-06-10 11:44:45
Программа кодирования : mkvmerge v27.0.0 ('Metropolis') 32-bit
Библиотека кодирования : libebml v1.3.6 + libmatroska v1.4.9
Обложка : Yes
Attachments : cover_land.jpg

Видео
Идентификатор : 1
Формат : AVC
Формат/Информация : Advanced Video Codec
Профиль формата : High@L4.1
Настройки формата : CABAC / 5 Ref Frames
Параметр CABAC формата : Да
Параметр RefFrames формата : 5 кадров
Идентификатор кодека : V_MPEG4/ISO/AVC
Продолжительность : 1 ч. 56 м.
Битрейт : 12,2 Мбит/сек
Ширина : 1920 пикселей
Высота : 816 пикселей
Соотношение сторон : 2,35:1
Режим частоты кадров : Постоянный
Частота кадров : 23,976 (24000/1001) кадра/сек
Цветовое пространство : YUV
Субдискретизация насыщенности : 4:2:0
Битовая глубина : 8 бит
Тип развёртки : Прогрессивная
Бит/(Пиксели*Кадры) : 0.324
Размер потока : 9,95 Гбайт (90%)
Библиотека кодирования : x264 core 157 r2867+103 0d6443f t_mod_Custom_2 [8-bit@all X86_64]
Настройки программы : cabac=1 / ref=5 / deblock=1:-3:-3 / analyse=0x3:0x133 / me=umh / subme=10 / psy=1 / fade_compensate=0.00 / psy_rd=1.00:0.00 / mixed_ref=1 / me_range=32 / chroma_me=1 / trellis=2 / 8x8dct=1 / cqm=0 / deadzone=21,11 / fast_pskip=0 / chroma_qp_offset=-2 / threads=24 / lookahead_threads=6 / sliced_threads=0 / nr=0 / decimate=0 / interlaced=0 / bluray_compat=0 / constrained_intra=0 / fgo=0 / bframes=10 / b_pyramid=2 / b_adapt=2 / b_bias=0 / direct=3 / weightb=1 / open_gop=0 / weightp=2 / keyint=250 / keyint_min=23 / scenecut=40 / intra_refresh=0 / rc_lookahead=60 / rc=crf / mbtree=0 / crf=15.6000 / qcomp=0.60 / qpmin=0:0:0 / qpmax=69:69:69 / qpstep=4 / vbv_maxrate=62500 / vbv_bufsize=78125 / crf_max=0.0 / nal_hrd=none / filler=0 / ip_ratio=1.30 / pb_ratio=1.20 / aq=3:0.80 / aq-sensitivity=10.00 / aq-factor=1.00:1.00:1.00 / aq2=0 / aq3=0 / zones=372,406,crf=14/831,950,crf=15
Default : Да
Forced : Нет
Цветовой диапазон : Limited
Коэффициенты матрицы : BT.709

Аудио #1
Идентификатор : 2
Формат : AC-3
Формат/Информация : Audio Coding 3
Коммерческое название : Dolby Digital
Идентификатор кодека : A_AC3
Продолжительность : 1 ч. 56 м.
Вид битрейта : Постоянный
Битрейт : 640 Кбит/сек
Каналы : 6 каналов
Channel layout : L R C LFE Ls Rs
Частота : 48,0 КГц
Частота кадров : 31,250 кадров/сек (1536 SPF)
Битовая глубина : 16 бит
Метод сжатия : С потерями
Размер потока : 535 Мбайт (5%)
Язык : Russian
ServiceKind/String : Complete Main
Default : Да
Forced : Нет

Аудио #2
Идентификатор : 3
Формат : AC-3
Формат/Информация : Audio Coding 3
Коммерческое название : Dolby Digital
Идентификатор кодека : A_AC3
Продолжительность : 1 ч. 56 м.
Вид битрейта : Постоянный
Битрейт : 640 Кбит/сек
Каналы : 6 каналов
Channel layout : L R C LFE Ls Rs
Частота : 48,0 КГц
Частота кадров : 31,250 кадров/сек (1536 SPF)
Битовая глубина : 16 бит
Метод сжатия : С потерями
Размер потока : 535 Мбайт (5%)
Язык : English
ServiceKind/String : Complete Main
Default : Нет
Forced : Нет

Текст #1
Идентификатор : 4
Формат : UTF-8
Идентификатор кодека : S_TEXT/UTF8
Идентификатор кодека/Информация : UTF-8 Plain Text
Продолжительность : 1 ч. 51 м.
Битрейт : 64 бит/сек
ElementCount : 1507
Размер потока : 53,0 Кбайт (0%)
Язык : English
Default : Нет
Forced : Нет

Текст #2
Идентификатор : 5
Формат : UTF-8
Идентификатор кодека : S_TEXT/UTF8
Идентификатор кодека/Информация : UTF-8 Plain Text
Продолжительность : 1 ч. 56 м.
Битрейт : 68 бит/сек
ElementCount : 1663
Размер потока : 58,1 Кбайт (0%)
Заголовок : SDH
Язык : English
Default : Нет
Forced : Нет

Меню
00:00:00.000 : en:Chapter 1
00:06:57.584 : en:Chapter 2
00:14:58.856 : en:Chapter 3
00:21:21.947 : en:Chapter 4
00:27:23.809 : en:Chapter 5
00:36:22.806 : en:Chapter 6
00:41:42.124 : en:Chapter 7
00:48:53.305 : en:Chapter 8
00:54:59.296 : en:Chapter 9
01:04:23.067 : en:Chapter 10
01:11:11.767 : en:Chapter 11
01:16:28.375 : en:Chapter 12
01:24:47.707 : en:Chapter 13
01:30:18.997 : en:Chapter 14
01:37:15.788 : en:Chapter 15
01:45:36.455 : en:Chapter 16

piratbit.pw



Скачать Американские животные через торрент http://i3.imageban.ru/out/2018/08/26/de98b3e8cfc009cc2f8174dea483fee8.jpg Скачать фильм Американские животные через торрент бесплантно в хорошем качестве Описание: Основан на реальных событиях. История четырех молодых людей, которые предпринимают попытку совершить одно из самых дерзких ... 10 10 1
Торрент: Зарегистрирован [2019-06-10 17:59] · скачан: 33 раз
Статус: T временная
Размер: 10.99 GB
Как cкачать? Как скачать Американские животные через торрент | qTorrent

% Раздел Тема Автор DL S | L
T Фильмы (мультфильмы) cо спонсором показа (Новинки AVI/MKV) [ 1.54 GB ] Американские животные / American Animals [2018 BDRip] MVO + Original Eng SVBand Скачать
6 | 0
T Фильмы (мультфильмы) cо спонсором показа (Новинки AVI/MKV) [ 5.33 GB ] Американские животные / American Animals [2018 BDRip 720p] MVO + Original Eng + Sub SVBand Скачать
6 | 0
Фильмы 2018 [DVDrip, WEB-DLRip, HDrip] (DUB, MVO) [ 1.45 GB ] Американские животные / American Animals [2018 BDRip-AVC] MVO [HDrezka Studio] - ExKinoRay Enigma2010 Скачать
1 | 0
T Фильмы 2018 [DVDrip, WEB-DLRip, HDrip] (DUB, MVO) [ 1.47 GB ] Американские животные / American Animals [2018 BDRip] MVO [HDrezka Studio] bober100 Скачать
4 | 0
T Фильмы 2018 [DVDrip, WEB-DLRip, HDrip] (DUB, MVO) [ 2.18 GB ] Американские животные / American Animals [2018 BDRip] MVO [HDrezka Studio] Twi7ter Скачать
4 | 0
T Фильмы 2018 [DVDrip, WEB-DLRip, HDrip] (DUB, MVO) [ 1.46 GB ] Американские животные / American Animals [2018 BDRip] MVO [HDrezka Studio] Twi7ter Скачать
2 | 1
T Фильмы 2018 [DVDrip, WEB-DLRip, HDrip] (DUB, MVO) [ 2.06 GB ] Американские животные / American Animals [2018 BDRip-AVC] MVO [HDrezka Studio] bober100 Скачать
3 | 0


Последний раз редактировалось: SVBand (2019-06-10 18:43), всего редактировалось 1 раз


>> Регистрируемся здесь <<






Отзывы и комментарии о схеме читаем и пишем здесь: ---> Отзывы и комментарии о схеме

Новые благодарочки в телеграм довольных пользователей:
скриншот   скриншот   скриншот   скриншот   скриншот

10-06-2019 18:50 Американские животные Скачать торрент  

    Дорогой пользователь! Огромная просьба, поблагодарите релизера, оцените раздачу и оставьте свои комментарий, если Вы скачали Американские животные через торрент бесплатно! Внесите свою лепту в развитие PiratBit!
    Комментировать посты могут только пользователи прошедшие не сложную регистрацию
    Показать сообщения:    

    Американские животные через торрент
    Скачать бесплатно Американские животные
    Американские животные скачать торрент
    Американские животные смотреть онлайн
    Cкачать фильм Американские животные бесплатно
    Американские животные скачать торрент в хорошем качестве
    Американские животные смотреть онлайн бесплатно в хорошем качестве


    Вы не можете начинать темы
    Вы не можете отвечать на сообщения
    Вы не можете редактировать свои сообщения
    Вы не можете удалять свои сообщения
    Вы не можете голосовать в опросах
    Вы не можете прикреплять файлы к сообщениям
    Вы можете скачивать файлы