MEGA SALE -75% Borderlands 3 Super Deluxe всего за 550р. 180 руб. (супер цена). Внимание количество ограничено!!!

iTunes

1+1

iTunes

мы

iTunes

1

iTunes

Чернобыль

iTunes

Ральф против интернета

Лицензия

ПШазам

Лицензия

Игра престолов

Лицензия

30
pack

ВАЖНО

!!Акция!!

Alien_RageХит недели

RePack

Resident Evil 21

ИГРА 18+

pack

RePack

Metro:Exodus

!!Акция!!

Alien_Rage

RePack

fifa19

RePack

Assassins Creed: Odyssey

RePack

NEED FOR SPEED™ PAYBACK

3 сезон

9 сезон

Бесстыжие 9 сезон

Все сериалы

все сериалы на PB.wtf

RePack

FAR CRY 5
Ребята, катастрофически не хватает 1900р. для оплаты серверов за АВГУСТ (всвязи с блокировками трафик упал в 3 раза), 1-2р., выручайте.
  

Рассказ служанки / The Handmaid's Tale / Сезон: 3 / Серии: 1-13 из 13 (Майк Баркер, Кари Скогланд, Рид Морано) [2019, Фантастика, триллер, драма, WEB-DLRip] MVO [LostFilm] piratbit.pw

Рассказ служанки через торрент piratbit.pw

Раздают: 7 [ 265 KB/s ] Качают: 2 [ 0 KB/s ]
Размер: 9.26 GB | Добавлен: 1 мес. 28 д. назад | Торрент скачан:54 раза
Скачать  

09-06-2019 14:13 Рассказ служанки Скачать торрент  

Рассказ служанки | The Handmaid's Tale Год выпуска: 2019
Страна: США
Жанр: Фантастика, триллер, драма
Продолжительность: ~ 00:50:00
Перевод: Профессиональный (многоголосый закадровый) | LostFilm
Субтитры: Русские, английские

Режиссёр: Майк Баркер, Кари Скогланд, Рид Морано

В ролях: Элизабет Мосс, Джозеф Файнс, Ивонн Страховски, Алексис Бледел, Мадлен Брюэр, Энн Дауд, ОуТи Фагбенл, Макс Мингелла, Самира Уайли

Описание: Действие разворачивается в будущем, в республике Гилеад, где у власти стоят военные. В стране жестокие порядки и нравы, уважением в обществе пользуются только офицеры и их жёны. Помимо тоталитарного устройства общества, в мире будущего есть серьёзная проблема — бесплодие. Лишь каждая сотая женщина способна к воспроизведению потомства. Чтобы продолжить офицерский род, семьи берут в дом служанку — суррогатную мать из числа простых женщин, способных к деторождению. Исполнив долг, служанка должна расстаться со своим ребёнком и перейти на службу к новым хозяевам.



Качество: WEB-DLRip
Формат: AVI

Видео: XviD, 704x352 (2,000), 23.976 кадров/сек, ~1600 Кбит/сек
Аудио Rus: AC3, 48,0 kHz, 2 ch, 192 Кбит/сек | LostFilm
Аудио Eng: AC3, 48,0 kHz, 2 ch, 192 Кбит/сек

Реклама: Отсутствует
• Спасибо kogesan
01. Ночь / Night
Общее
Полное имя : E:\The Handmaid's Tale (Season 3) WEB-DLRip LostFilm\The.Handmaid's.Tale.S03E01.WEB-DLRip.RGzsRutracker.[Wentworth_Miller].avi
Формат : AVI
Формат/Информация : Audio Video Interleave
Размер файла : 715 Мбайт
Продолжительность : 50 м. 3 с.
Общий поток : 1998 Кбит/сек
Название фильма : The Handmaid's Tale 03x01 (Ночь / Night) - Release by Wentworth_Miller
Программа кодирования : VirtualDubMod 1.5.10.3 | www.virtualdub-fr.org || (build 2550/release)

Видео
Идентификатор : 0
Формат : MPEG-4 Visual
Профиль формата : Advanced Simple@L5
Настройки формата : BVOP1
Параметр BVOP формата : 1
Параметр QPel формата : Нет
Параметр GMC формата : Без точки перехода
Параметр матрицы формата : Default (MPEG)
Идентификатор кодека : XVID
Идентификатор кодека/Подсказка : XviD
Продолжительность : 50 м. 3 с.
Битрейт : 1600 Кбит/сек
Ширина : 704 пикселя
Высота : 352 пикселя
Соотношение сторон : 2,000
Частота кадров : 23,976 (24000/1001) кадра/сек
Цветовое пространство : YUV
Субдискретизация насыщенности : 4:2:0
Битовая глубина : 8 бит
Тип развёртки : Прогрессивная
Метод сжатия : С потерями
Бит/(Пиксели*Кадры) : 0.269
Размер потока : 573 Мбайт (80%)
Библиотека кодирования : XviD 67

Аудио #1
Идентификатор : 1
Формат : AC-3
Формат/Информация : Audio Coding 3
Коммерческое название : Dolby Digital
Идентификатор кодека : 2000
Продолжительность : 50 м. 3 с.
Вид битрейта : Постоянный
Битрейт : 192 Кбит/сек
Каналы : 2 канала
ChannelLayout : L R
Частота : 48,0 КГц
Частота кадров : 31,250 кадров/сек (1536 SPF)
Битовая глубина : 16 бит
Метод сжатия : С потерями
Размер потока : 68,7 Мбайт (10%)
Выравнивание : Разделение по промежуткам
Продолжительность промежутка : 42 мс. (1,00 видеокадр)
Время предзагрузки промежутка : 500 мс.
ServiceKind/String : Complete Main

Аудио #2
Идентификатор : 2
Формат : AC-3
Формат/Информация : Audio Coding 3
Коммерческое название : Dolby Digital
Идентификатор кодека : 2000
Продолжительность : 50 м. 3 с.
Вид битрейта : Постоянный
Битрейт : 192 Кбит/сек
Каналы : 2 канала
ChannelLayout : L R
Частота : 48,0 КГц
Частота кадров : 31,250 кадров/сек (1536 SPF)
Битовая глубина : 16 бит
Метод сжатия : С потерями
Размер потока : 68,7 Мбайт (10%)
Выравнивание : Разделение по промежуткам
Продолжительность промежутка : 42 мс. (1,00 видеокадр)
Время предзагрузки промежутка : 500 мс.
ServiceKind/String : Complete Main
скриншот  скриншот  скриншот  скриншот  
Внимание! Раздача ведётся путём добавления новых серий; при каждом добавлении создаётся новый торрент. Чтобы начать докачку новой серии, пользователям необходимо сделать следующее:
(1) остановить скачивание,
(2) удалить старый торрент у себя из клиента (старые серии удалять не надо),
(3) скачать новый торрент и запустить его у себя в клиенте вместо старого, при этом указать клиенту путь в старую папку куда и должно происходить скачивание новых серий.

Ваш клиент при этом должен произвести хеширование (проверку) старой папки (если не производит сам - помогите ему сделать это), и будет докачивать только те серии которых у вас ещё нет. Старые серии при этом не удаляются, а продолжают раздаваться!

Eсли вы уже удалили старые серии, то предотвратить повторную закачку старых серий можно, отжав галочку в соответствующих местах при запуске нового торрента. По возможности, желательно не удалять старые серии как можно дольше чтобы релизёр не столько продолжал раздавать старые серии, а смог сконцентрироваться на новых.
piratbit.pw



Скачать Рассказ служанки через торрент http://img15.lostpic.net/2019/06/14/71eb6a6a42a56ca927fa67434fe1f12c.jpg Скачать фильм Рассказ служанки через торрент бесплантно в хорошем качестве Описание: Действие разворачивается в будущем, в республике Гилеад, где у власти стоят военные. В стране жестокие порядки и нравы, уважением ... 9.5 10 6
Торрент: Зарегистрирован [2019-08-17 15:58] · скачан: 54 раз
Статус: √ проверено
Размер: 9.26 GB
Как cкачать? Как скачать Рассказ служанки через торрент | qTorrent


>> Регистрируемся здесь <<






Отзывы и комментарии о схеме читаем и пишем здесь: ---> Отзывы и комментарии о схеме

Новые благодарочки в телеграм довольных пользователей:
скриншот   скриншот   скриншот   скриншот   скриншот
    Дорогой пользователь! Огромная просьба, поблагодарите релизера, оцените раздачу и оставьте свои комментарий, если Вы скачали Рассказ служанки через торрент бесплатно! Внесите свою лепту в развитие PiratBit!
    Комментировать посты могут только пользователи прошедшие не сложную регистрацию
    Показать сообщения:    

    Рассказ служанки через торрент
    Скачать бесплатно Рассказ служанки
    Рассказ служанки скачать торрент
    Рассказ служанки смотреть онлайн
    Cкачать фильм Рассказ служанки бесплатно
    Рассказ служанки скачать торрент в хорошем качестве
    Рассказ служанки смотреть онлайн бесплатно в хорошем качестве


    Вы не можете начинать темы
    Вы не можете отвечать на сообщения
    Вы не можете редактировать свои сообщения
    Вы не можете удалять свои сообщения
    Вы не можете голосовать в опросах
    Вы не можете прикреплять файлы к сообщениям
    Вы можете скачивать файлы