Мега распродажа FORZA HORIZON 4 ULTIMATE+ВСЕ DLC+ОНЛАЙН всего за 499р. 349 руб. (супер цена). Внимание количество ограничено!!!

Лицензия

30

iTunes

мы

iTunes

1

1 сезон

Чернобыль

1 сезон

Ральф против интернета

MVO

Покемон. Детектив Пикачу

8 сезон

Игра престолов

iTunes

1+1

ИГРА 18+

pack

ВАЖНО

!!Акция!!

Alien_RageХит недели

RePack

Resident Evil 21
pack

RePack

Metro:Exodus

!!Акция!!

Alien_Rage

RePack

fifa19

RePack

Assassins Creed: Odyssey

RePack

NEED FOR SPEED™ PAYBACK

3 сезон

9 сезон

Бесстыжие 9 сезон

Все сериалы

все сериалы на PB.wtf

RePack

FAR CRY 5
Ребята, катастрофически не хватает 2730р. для оплаты серверов за МАЙ (всвязи с блокировками трафик упал в 3 раза), 1-2р., выручайте.
  

Трещины / Cracks (Джордан Скотт) [2009, драма, BDRip 720p by msltel] VO piratbit.pw

Трещины через торрент piratbit.pw

Раздают: 2 [ 0 KB/s ]
Размер: 4.75 GB | Добавлен: 14 д. назад | Торрент скачан:23 раза
Скачать  

05-06-2019 11:17 Трещины Скачать торрент  

Название: Трещины
Оригинальное название: Cracks
Год выпуска: 2009
Страна: Великобритания, Ирландия, Испания, Франция, Швейцария
Жанр: драма
Продолжительность: 01:44:00
Перевод: закадровый одноголосый

Режиссер: Джордан Скотт
В ролях: Ева Грин, Джуно Темпл, Мария Вальверде, Имоджен Путс, Элли Нанн, Аделе МакКанн, Зои Кэрролл, Клемми Дагдэйл, Шинейд Кьюсак, Хелен Нортон, Дирдри Доннелли, Барбара Шихэн, Алистар Рамбл, Китти Маклафлин-Даннинг, Джонатан Уайт

О фильме: Действие фильма происходит в 1930-х годах в Англии, в школе-интернате для девочек. Шесть подружек, живущих вместе в одной комнате, обожают молодую преподавательницу — мисс Джи, которая ведёт в школе занятия по плаванию. Особенно боготворит её одна из девушек — Дай. Независимая, всегда элегантно одетая мисс Джи призывает учениц раскрыть свой внутренний мир, поверить своим чувствам. Её увлекательные рассказы о своей жизни рисуют картины далёких стран, она описывает удивительные путешествия и приключения... Скоро в школу приезжает новая воспитанница — красивая испанка Фиамма, которая попадает сюда из-за таинственной романтической истории, случившейся на родине. Несмотря на слабое здоровье (Фиамма больна астмой), она сразу же производит впечатление своей независимостью и врожденной грациозностью на мисс Джи. Дай начинает сильно ревновать новенькую, понимая, что больше не является любимицей своей учительницы. Когда Фиамме присылают в подарок из Испании целую коробку конфет и пирожных, невиданных в школе, это ещё больше подчёркивает её необычность. Вдобавок, Фиамма много путешествовала и читала много книг и оказывается не менее интересной рассказчицей, чем сама мисс Джи... Фильм снят по одноимённому роману Шейлы Кохлер. (Википедия)



Качество: BDRip 720p
Формат: MKV
Видео: MPEG-4 AVC, 5645 Кбит/с, 1280x694, 24 кадр/с
Аудио 1: русский, AC3, 448 kbps, 6 ch, 48 kHz [закадровый одноголосый, acolith]
Аудио 2: английский, AC3, 448 kbps, 6 ch, 48 kHz [оригинал]
Субтитры: русские (acolith)
Главы/чаптеры
Общее
Уникальный идентификатор : 213468122011011584520660050301156929552 (0xA09876FF726D032C80A7F99EB9793010)
Полное имя : D:\Video\Трещины.2009.BDRip 720p by msltel.mkv
Формат : Matroska
Версия формата : Version 4
Размер файла : 4,75 Гбайт
Продолжительность : 1 ч. 44 м.
Общий поток : 6543 Кбит/сек
Название фильма : Rip by msltel
Дата кодирования : UTC 2019-06-04 01:51:17
Программа кодирования : mkvmerge v8.2.0 ('World of Adventure') 64bit
Библиотека кодирования : libebml v1.3.1 + libmatroska v1.4.2

Видео
Идентификатор : 1
Формат : AVC
Формат/Информация : Advanced Video Codec
Профиль формата : High@L4.1
Настройки формата : CABAC / 9 Ref Frames
Параметр CABAC формата : Да
Параметр RefFrames формата : 9 кадров
Идентификатор кодека : V_MPEG4/ISO/AVC
Продолжительность : 1 ч. 44 м.
Битрейт : 5645 Кбит/сек
Ширина : 1280 пикселей
Высота : 694 пикселя
Соотношение сторон : 1,85:1
Режим частоты кадров : Постоянный
Частота кадров : 24,000 кадра/сек
Цветовое пространство : YUV
Субдискретизация насыщенности : 4:2:0
Битовая глубина : 8 бит
Тип развёртки : Прогрессивная
Бит/(Пиксели*Кадры) : 0.265
Размер потока : 4,10 Гбайт (86%)
Библиотека кодирования : x264 core 157 r2935 545de2f
Настройки программы : cabac=1 / ref=9 / deblock=1:-2:-2 / analyse=0x3:0x113 / me=umh / subme=11 / psy=1 / psy_rd=1.00:0.15 / mixed_ref=1 / me_range=32 / chroma_me=1 / trellis=2 / 8x8dct=1 / cqm=0 / deadzone=21,11 / fast_pskip=0 / chroma_qp_offset=-3 / threads=6 / lookahead_threads=1 / sliced_threads=0 / nr=0 / decimate=1 / interlaced=0 / bluray_compat=0 / constrained_intra=0 / bframes=13 / b_pyramid=2 / b_adapt=2 / b_bias=0 / direct=1 / weightb=1 / open_gop=0 / weightp=2 / keyint=230 / keyint_min=23 / scenecut=40 / intra_refresh=0 / rc_lookahead=40 / rc=crf / mbtree=1 / crf=19.0 / qcomp=0.60 / qpmin=0 / qpmax=69 / qpstep=4 / vbv_maxrate=50000 / vbv_bufsize=62500 / crf_max=0.0 / nal_hrd=none / filler=0 / ip_ratio=1.40 / aq=1:1.00
Язык : English
Default : Да
Forced : Нет

Аудио #1
Идентификатор : 2
Формат : AC-3
Формат/Информация : Audio Coding 3
Коммерческое название : Dolby Digital
Идентификатор кодека : A_AC3
Продолжительность : 1 ч. 44 м.
Вид битрейта : Постоянный
Битрейт : 448 Кбит/сек
Каналы : 6 каналов
ChannelLayout : L R C LFE Ls Rs
Частота : 48,0 КГц
Частота кадров : 31,250 кадров/сек (1536 SPF)
Битовая глубина : 16 бит
Метод сжатия : С потерями
Размер потока : 333 Мбайт (7%)
Заголовок : acolith
Язык : Russian
ServiceKind/String : Complete Main
Default : Да
Forced : Нет

Аудио #2
Идентификатор : 3
Формат : AC-3
Формат/Информация : Audio Coding 3
Коммерческое название : Dolby Digital
Идентификатор кодека : A_AC3
Продолжительность : 1 ч. 44 м.
Вид битрейта : Постоянный
Битрейт : 448 Кбит/сек
Каналы : 6 каналов
ChannelLayout : L R C LFE Ls Rs
Частота : 48,0 КГц
Частота кадров : 31,250 кадров/сек (1536 SPF)
Битовая глубина : 16 бит
Метод сжатия : С потерями
Размер потока : 333 Мбайт (7%)
Заголовок : original
Язык : English
ServiceKind/String : Complete Main
Default : Нет
Forced : Нет

Текст
Идентификатор : 4
Формат : UTF-8
Идентификатор кодека : S_TEXT/UTF8
Идентификатор кодека/Информация : UTF-8 Plain Text
Продолжительность : 1 ч. 35 м.
Битрейт : 57 бит/сек
ElementCount : 774
Размер потока : 40,6 Кбайт (0%)
Заголовок : русские acolith
Язык : Russian
Default : Нет
Forced : Нет

Меню
00:00:00.000 : :Chapter 1
00:05:00.000 : :Chapter 2
00:10:00.000 : :Chapter 3
00:15:00.000 : :Chapter 4
00:20:00.000 : :Chapter 5
00:25:00.000 : :Chapter 6
00:30:00.000 : :Chapter 7
00:35:00.000 : :Chapter 8
00:40:00.000 : :Chapter 9
00:45:00.000 : :Chapter 10
00:50:00.000 : :Chapter 11
00:55:00.000 : :Chapter 12
01:00:00.000 : :Chapter 13
01:05:00.000 : :Chapter 14
01:10:00.000 : :Chapter 15
01:15:00.000 : :Chapter 16
01:20:00.000 : :Chapter 17
01:25:00.000 : :Chapter 18
01:30:00.000 : :Chapter 19
01:35:00.000 : :Chapter 20
01:40:00.000 : :Chapter 21
piratbit.pw



Скачать Трещины через торрент https://b.radikal.ru/b01/1906/4c/b7dbe713d33a.jpg Скачать фильм Трещины через торрент бесплантно в хорошем качестве О фильме: Действие фильма происходит в 1930-х годах в Англии, в школе-интернате для девочек. Шесть подружек, живущих вместе в одной ... 5 10 1
Торрент: Зарегистрирован [2019-06-05 11:17] · скачан: 23 раз
Статус: √ проверено
Размер: 4.75 GB
Как cкачать? Как скачать Трещины через торрент | qTorrent

% Раздел Тема Автор DL S | L
Фильмы [HD 720p, 1080p] (Звук Cam, VO, DVO) [ 12.16 GB ] Трещины / Cracks [2009 BDRip 1080p by msltel] VO msltel Скачать
2 | 0


>> Регистрируемся здесь <<






Отзывы и комментарии о схеме читаем и пишем здесь: ---> Отзывы и комментарии о схеме

Новые благодарочки в телеграм довольных пользователей:
скриншот   скриншот   скриншот   скриншот   скриншот
    Дорогой пользователь! Огромная просьба, поблагодарите релизера, оцените раздачу и оставьте свои комментарий, если Вы скачали Трещины через торрент бесплатно! Внесите свою лепту в развитие PiratBit!
    Комментировать посты могут только пользователи прошедшие не сложную регистрацию
    Показать сообщения:    

    Трещины через торрент
    Скачать бесплатно Трещины
    Трещины скачать торрент
    Трещины смотреть онлайн
    Cкачать фильм Трещины бесплатно
    Трещины скачать торрент в хорошем качестве
    Трещины смотреть онлайн бесплатно в хорошем качестве


    Вы не можете начинать темы
    Вы не можете отвечать на сообщения
    Вы не можете редактировать свои сообщения
    Вы не можете удалять свои сообщения
    Вы не можете голосовать в опросах
    Вы не можете прикреплять файлы к сообщениям
    Вы можете скачивать файлы