Мега распродажа FORZA HORIZON 4 ULTIMATE+ВСЕ DLC+ОНЛАЙН всего за 499р. 349 руб. (супер цена). Внимание количество ограничено!!!

Лицензия

30

iTunes

мы

iTunes

1

1 сезон

Чернобыль

1 сезон

Ральф против интернета

MVO

Покемон. Детектив Пикачу

8 сезон

Игра престолов

iTunes

1+1

ИГРА 18+

pack

ВАЖНО

!!Акция!!

Alien_RageХит недели

RePack

Resident Evil 21
pack

RePack

Metro:Exodus

!!Акция!!

Alien_Rage

RePack

fifa19

RePack

Assassins Creed: Odyssey

RePack

NEED FOR SPEED™ PAYBACK

3 сезон

9 сезон

Бесстыжие 9 сезон

Все сериалы

все сериалы на PB.wtf

RePack

FAR CRY 5
Ребята, катастрофически не хватает 2730р. для оплаты серверов за МАЙ (всвязи с блокировками трафик упал в 3 раза), 1-2р., выручайте.
  

Болотная тварь / Swamp Thing / Сезон: 1 / Серии: 1-2 из 10 (Лен Уайзман, Кэрол Бенкер, Тоа Фрейзер) [2019, ужасы, фантастика, фэнтези, боевик, драма., WEB-DLRip] MVO [AlexFilm] piratbit.pw

Болотная тварь через торрент piratbit.pw

Раздают: 14 [ 0 KB/s ] Качают: 1 [ 0 KB/s ]
Размер: 1.55 GB | Добавлен: 8 д. назад | Торрент скачан:89 раз
Скачать  

04-06-2019 13:24 Болотная тварь Скачать торрент  

Болотная тварь / Swamp Thing Год выпуска: 2019
Страна: США
Жанр: ужасы, фантастика, фэнтези, боевик, драма.
Продолжительность: ~01:00:00
Перевод: Профессиональный (многоголосый закадровый) | AlextFilm
Субтитры: Русские, английские (SDH)

Режиссёр: Лен Уайзман, Кэрол Бенкер, Тоа Фрейзер

В ролях:

Кристал Рид, Энди Бин, Дерек Мирс, Хендерсон Вэйд, Дженнифер Билз, Вирджиния Мэдсен, Уилл Пэттон, Мария Стэн, Селена Андусе, Кевин Дюран

Описание:

Микробиолог Эбби Аркейн возвращается в родной город — здесь разбушевался смертельный вирус, который необходимо изучить и нейтрализовать. Она знакомится с коллегой Алеком Холландом, их совместная работа стремительно перерастает в романтические отношения, но на всем этом ставит точку несчастный случай на болоте, в результате которого Алек погибает. Убитая горем Эбби еще не знает, что ее ждет новая встреча с возлюбленным, который теперь превратился в человекообразное растение с супергеройскими способностями



Качество: WEB-DLRip
Формат: AVI

Видео: XviD, 704x320, 23,976 fps, ~ 1599 kbps
Аудио 1: 48 kHz, AC3 2 ch, ~192 kbps|AlexFilm|
Аудио 2: 48 kHz, AC3 2 ch, ~192 kbps

Реклама: Отсутствует
Очистка от рекламы: Игорь_Владимирович
Format : AVI
Format/Info : Audio Video Interleave
File size : 854 MiB
Duration : 59mn 43s
Overall bit rate : 1 998 Kbps
Movie name : Болотаная тварь 1х01: Пилот
Director : Бёдвар (WEB-DLRip)
Writing application : VirtualDubModRus 1.5.10.2 (build 2542/release)
Comment : 04.06.2019

Video
ID : 0
Format : MPEG-4 Visual
Format profile : Advanced Simple@L5
Format settings, BVOP : 1
Format settings, QPel : No
Format settings, GMC : No warppoints
Format settings, Matrix : Default (MPEG)
Codec ID : XVID
Codec ID/Hint : XviD
Duration : 59mn 43s
Bit rate : 1 600 Kbps
Width : 704 pixels
Height : 320 pixels
Display aspect ratio : 2.2:1
Frame rate : 23.976 (24000/1001) fps
Color space : YUV
Chroma subsampling : 4:2:0
Bit depth : 8 bits
Scan type : Progressive
Compression mode : Lossy
Bits/(Pixel*Frame) : 0.296
Stream size : 683 MiB (80%)
Writing library : XviD 67

Audio #1
ID : 1
Format : AC-3
Format/Info : Audio Coding 3
Mode extension : CM (complete main)
Format settings, Endianness : Big
Codec ID : 2000
Duration : 59mn 43s
Bit rate mode : Constant
Bit rate : 192 Kbps
Channel(s) : 2 channels
Channel positions : Front: L R
Sampling rate : 48.0 KHz
Frame rate : 31.250 fps (1536 spf)
Compression mode : Lossy
Stream size : 82.0 MiB (10%)
Alignment : Split accross interleaves
Interleave, duration : 42 ms (1.00 video frame)
Interleave, preload duratio : 500 ms

Audio #2
ID : 2
Format : AC-3
Format/Info : Audio Coding 3
Mode extension : CM (complete main)
Format settings, Endianness : Big
Codec ID : 2000
Duration : 59mn 43s
Bit rate mode : Constant
Bit rate : 192 Kbps
Channel(s) : 2 channels
Channel positions : Front: L R
Sampling rate : 48.0 KHz
Frame rate : 31.250 fps (1536 spf)
Compression mode : Lossy
Stream size : 82.0 MiB (10%)
Alignment : Split accross interleaves
Interleave, duration : 42 ms (1.00 video frame)
Interleave, preload duratio : 500 ms
скриншот  скриншот  скриншот  скриншот  
[font-serif1]Внимание! Раздача ведётся путём добавления новых серий; при каждом добавлении создаётся новый торрент. Чтобы начать докачку новой серии,пользователям необходимо сделать следующее:
(1) остановить скачивание,
(2) удалить старый торрент у себя из клиента (старые серии удалять не надо),
(3) скачать новый торрент и запустить его у себя в клиенте вместо старого, при этом указать клиенту путь в старую папку куда и должнопроисходить скачивание новых серий.

Ваш клиент при этом должен произвести хеширование (проверку) старой папки (если не производит сам - помогите ему сделать это), и будет докачивать только те серии
которых у вас ещё нет. Старые серии при этом не удаляются, а продолжают раздаваться!

Eсли вы уже удалили старые серии, то предотвратить повторную закачку старых серий можно, отжав галочку в соответствующих местах при запуске нового торрента.

По возможности, желательно не удалять старые серии как можно дольше чтобы релизёр не столько продолжал раздавать старые серии, а смог сконцентрироваться на новых.
[/font-serif1]
piratbit.pw



Скачать Болотная тварь через торрент https://a.radikal.ru/a20/1906/4f/aba7053282a2.jpg Скачать фильм Болотная тварь через торрент бесплантно в хорошем качестве Описание: Микробиолог Эбби Аркейн возвращается в родной город — здесь разбушевался смертельный вирус, который необходимо изучить и ... 10 10 4
Торрент: Зарегистрирован [2019-06-11 19:43] · скачан: 89 раз
Статус: √ проверено
Размер: 1.55 GB
Как cкачать? Как скачать Болотная тварь через торрент | qTorrent


>> Регистрируемся здесь <<






Отзывы и комментарии о схеме читаем и пишем здесь: ---> Отзывы и комментарии о схеме

Новые благодарочки в телеграм довольных пользователей:
скриншот   скриншот   скриншот   скриншот   скриншот
    Дорогой пользователь! Огромная просьба, поблагодарите релизера, оцените раздачу и оставьте свои комментарий, если Вы скачали Болотная тварь через торрент бесплатно! Внесите свою лепту в развитие PiratBit!
    Комментировать посты могут только пользователи прошедшие не сложную регистрацию
    Показать сообщения:    

    Болотная тварь через торрент
    Скачать бесплатно Болотная тварь
    Болотная тварь скачать торрент
    Болотная тварь смотреть онлайн
    Cкачать фильм Болотная тварь бесплатно
    Болотная тварь скачать торрент в хорошем качестве
    Болотная тварь смотреть онлайн бесплатно в хорошем качестве


    Вы не можете начинать темы
    Вы не можете отвечать на сообщения
    Вы не можете редактировать свои сообщения
    Вы не можете удалять свои сообщения
    Вы не можете голосовать в опросах
    Вы не можете прикреплять файлы к сообщениям
    Вы можете скачивать файлы