MEGA SALE -50% FORZA HORIZON 4 ULTIMATE+ВСЕ DLC+ОНЛАЙН всего за 599р. 299 руб. (супер цена). Внимание количество ограничено!!!

iTunes

1+1

iTunes

мы

iTunes

1

iTunes

Чернобыль

1 сезон

Ральф против интернета

Лицензия

ПШазам

Лицензия

Игра престолов

Лицензия

30
pack

ВАЖНО

!!Акция!!

Alien_RageХит недели

RePack

Resident Evil 21

ИГРА 18+

pack

RePack

Metro:Exodus

!!Акция!!

Alien_Rage

RePack

fifa19

RePack

Assassins Creed: Odyssey

RePack

NEED FOR SPEED™ PAYBACK

3 сезон

9 сезон

Бесстыжие 9 сезон

Все сериалы

все сериалы на PB.wtf

RePack

FAR CRY 5
Ребята, катастрофически не хватает 7730р. для оплаты серверов за ИЮЛЬ (всвязи с блокировками трафик упал в 3 раза), 1-2р., выручайте.
  

Клочок синевы / A Patch of Blue (Гай Грин) [1965, драма, мелодрама, BDRip 720p by msltel] VO piratbit.pw

Клочок синевы через торрент piratbit.pw

Размер: 3.66 GB | Добавлен: 2 мес. 20 д. назад | Торрент скачан:4 раза
Скачать  

03-06-2019 10:06 Клочок синевы Скачать торрент  

Название: Клочок синевы
Оригинальное название: A Patch of Blue
Год выпуска: 1965
Страна: США
Жанр: драма, мелодрама
Продолжительность: 01:45:16
Перевод: закадровый одноголосый

Режиссер: Гай Грин
В ролях: Сидни Пуатье, Шелли Уинтерс, Элизабет Хартман, Уоллес Форд, Иван Диксон, Элизабет Фрайзер, Джон Кволен, Келли Флинн, Деби Сторм, Рената Ванни

О фильме: Селина Д’Арси ослепла по вине своей матери в пятилетнем возрасте, и с тех пор её жизнь превратилась в сущий кошмар. Каждый день мать издевается над ней, заставляя убираться по дому и готовить еду, не разрешая той даже выйти на улицу. Но однажды Селине всё же удается попасть в городской парк, где она знакомится с афроамериканцем Гордоном, который решает помочь девушке приспособиться к этому миру...



Качество: BDRip 720p
Формат: MKV
Видео: MPEG-4 AVC, 4597 Кбит/с, 1280x544
Аудио 1: русский, AC3, 192 kbps, 1 ch, 48 kHz [закадровый одноголосый, Екатерина Мишина по субтитрам OpelMax]
Аудио 2: английский, AC3, 192 kbps, 2 ch, 48 kHz [оригинал]
Субтитры 1: русские (OpelMax)
Субтитры 2: английские
Главы/чаптеры
Общее
Уникальный идентификатор : 175588380742597949194622573354633581095 (0x8419178FA9906B8683870B21E776D227)
Полное имя : D:\Video\Клочок синевы.1965.BDRip 720p by msltel.mkv
Формат : Matroska
Версия формата : Version 4
Размер файла : 3,66 Гбайт
Продолжительность : 1 ч. 45 м.
Общий поток : 4983 Кбит/сек
Дата кодирования : UTC 2019-06-03 02:21:08
Программа кодирования : mkvmerge v8.2.0 ('World of Adventure') 64bit
Библиотека кодирования : libebml v1.3.1 + libmatroska v1.4.2

Видео
Идентификатор : 1
Формат : AVC
Формат/Информация : Advanced Video Codec
Профиль формата : High@L4.1
Настройки формата : CABAC / 9 Ref Frames
Параметр CABAC формата : Да
Параметр RefFrames формата : 9 кадров
Идентификатор кодека : V_MPEG4/ISO/AVC
Продолжительность : 1 ч. 45 м.
Битрейт : 4597 Кбит/сек
Ширина : 1280 пикселей
Высота : 544 пикселя
Соотношение сторон : 2,35:1
Режим частоты кадров : Постоянный
Частота кадров : 23,976 (24000/1001) кадра/сек
Цветовое пространство : YUV
Субдискретизация насыщенности : 4:2:0
Битовая глубина : 8 бит
Тип развёртки : Прогрессивная
Бит/(Пиксели*Кадры) : 0.275
Размер потока : 3,38 Гбайт (92%)
Библиотека кодирования : x264 core 157 r2935 545de2f
Настройки программы : cabac=1 / ref=9 / deblock=1:-2:-2 / analyse=0x3:0x113 / me=umh / subme=11 / psy=1 / psy_rd=1.00:0.15 / mixed_ref=1 / me_range=32 / chroma_me=1 / trellis=2 / 8x8dct=1 / cqm=0 / deadzone=21,11 / fast_pskip=0 / chroma_qp_offset=-3 / threads=6 / lookahead_threads=1 / sliced_threads=0 / nr=0 / decimate=1 / interlaced=0 / bluray_compat=0 / constrained_intra=0 / bframes=7 / b_pyramid=2 / b_adapt=2 / b_bias=0 / direct=1 / weightb=1 / open_gop=0 / weightp=2 / keyint=230 / keyint_min=23 / scenecut=40 / intra_refresh=0 / rc_lookahead=40 / rc=crf / mbtree=1 / crf=19.5 / qcomp=0.60 / qpmin=0 / qpmax=69 / qpstep=4 / vbv_maxrate=50000 / vbv_bufsize=62500 / crf_max=0.0 / nal_hrd=none / filler=0 / ip_ratio=1.40 / aq=1:1.00
Язык : English
Default : Да
Forced : Нет

Аудио #1
Идентификатор : 2
Формат : AC-3
Формат/Информация : Audio Coding 3
Коммерческое название : Dolby Digital
Идентификатор кодека : A_AC3
Продолжительность : 1 ч. 45 м.
Вид битрейта : Постоянный
Битрейт : 192 Кбит/сек
Каналы : 1 канал
ChannelLayout : C
Частота : 48,0 КГц
Частота кадров : 31,250 кадров/сек (1536 SPF)
Битовая глубина : 16 бит
Метод сжатия : С потерями
Размер потока : 145 Мбайт (4%)
Заголовок : Екатерина Мишина по субтитрам OpelMax
Язык : Russian
ServiceKind/String : Complete Main
Default : Да
Forced : Нет

Аудио #2
Идентификатор : 3
Формат : AC-3
Формат/Информация : Audio Coding 3
Коммерческое название : Dolby Digital
Идентификатор кодека : A_AC3
Продолжительность : 1 ч. 45 м.
Вид битрейта : Постоянный
Битрейт : 192 Кбит/сек
Каналы : 2 канала
ChannelLayout : L R
Частота : 48,0 КГц
Частота кадров : 31,250 кадров/сек (1536 SPF)
Битовая глубина : 16 бит
Метод сжатия : С потерями
Размер потока : 145 Мбайт (4%)
Заголовок : original
Язык : English
ServiceKind/String : Complete Main
Default : Нет
Forced : Нет

Текст #1
Идентификатор : 4
Формат : UTF-8
Идентификатор кодека : S_TEXT/UTF8
Идентификатор кодека/Информация : UTF-8 Plain Text
Продолжительность : 1 ч. 44 м.
Битрейт : 94 бит/сек
ElementCount : 1041
Размер потока : 72,5 Кбайт (0%)
Заголовок : русские OpelMax
Язык : Russian
Default : Нет
Forced : Нет

Текст #2
Идентификатор : 5
Формат : UTF-8
Идентификатор кодека : S_TEXT/UTF8
Идентификатор кодека/Информация : UTF-8 Plain Text
Продолжительность : 1 ч. 44 м.
Битрейт : 59 бит/сек
ElementCount : 1798
Размер потока : 45,7 Кбайт (0%)
Заголовок : английские
Язык : English
Default : Нет
Forced : Нет

Меню
00:00:00.000 : en:Chapter 1
00:02:01.872 : en:Chapter 2
00:05:52.602 : en:Chapter 3
00:10:31.589 : en:Chapter 4
00:13:50.455 : en:Chapter 5
00:16:02.920 : en:Chapter 6
00:20:01.534 : en:Chapter 7
00:22:50.369 : en:Chapter 8
00:26:54.613 : en:Chapter 9
00:32:15.183 : en:Chapter 10
00:37:29.247 : en:Chapter 11
00:39:15.728 : en:Chapter 12
00:44:49.812 : en:Chapter 13
00:49:15.870 : en:Chapter 14
00:53:44.972 : en:Chapter 15
00:59:21.224 : en:Chapter 16
01:01:31.563 : en:Chapter 17
01:05:53.908 : en:Chapter 18
01:10:31.686 : en:Chapter 19
01:14:04.774 : en:Chapter 20
01:19:10.287 : en:Chapter 21
01:22:00.541 : en:Chapter 22
01:23:31.632 : en:Chapter 23
01:26:24.137 : en:Chapter 24
01:29:20.564 : en:Chapter 25
01:32:50.356 : en:Chapter 26
01:37:21.794 : en:Chapter 27
01:41:42.930 : en:Chapter 28
01:44:39.482 : en:Chapter 29
piratbit.pw



Скачать Клочок синевы через торрент https://c.radikal.ru/c07/1906/c9/bd99f6e73843.jpg Скачать фильм Клочок синевы через торрент бесплантно в хорошем качестве О фильме: Селина Д’Арси ослепла по вине своей матери в пятилетнем возрасте, и с тех пор её жизнь превратилась в сущий кошмар. Каждый день ... 5 10 1
Торрент: Зарегистрирован [2019-06-03 10:06] · скачан: 4 раз
Статус: √ проверено
Размер: 3.66 GB
Как cкачать? Как скачать Клочок синевы через торрент | qTorrent

% Раздел Тема Автор DL S | L
Фильмы [HD 720p, 1080p] (Звук Cam, VO, DVO) [ 10.97 GB ] Клочок синевы / A Patch of Blue [1965 BDRip 1080p by msltel] VO msltel Скачать
1 | 0


>> Регистрируемся здесь <<






Отзывы и комментарии о схеме читаем и пишем здесь: ---> Отзывы и комментарии о схеме

Новые благодарочки в телеграм довольных пользователей:
скриншот   скриншот   скриншот   скриншот   скриншот
    Дорогой пользователь! Огромная просьба, поблагодарите релизера, оцените раздачу и оставьте свои комментарий, если Вы скачали Клочок синевы через торрент бесплатно! Внесите свою лепту в развитие PiratBit!
    Комментировать посты могут только пользователи прошедшие не сложную регистрацию
    Показать сообщения:    

    Клочок синевы через торрент
    Скачать бесплатно Клочок синевы
    Клочок синевы скачать торрент
    Клочок синевы смотреть онлайн
    Cкачать фильм Клочок синевы бесплатно
    Клочок синевы скачать торрент в хорошем качестве
    Клочок синевы смотреть онлайн бесплатно в хорошем качестве


    Вы не можете начинать темы
    Вы не можете отвечать на сообщения
    Вы не можете редактировать свои сообщения
    Вы не можете удалять свои сообщения
    Вы не можете голосовать в опросах
    Вы не можете прикреплять файлы к сообщениям
    Вы можете скачивать файлы