Ссылка на приватное зеркало нашего сайта всего за 1$. Внимание количество ограничено!!!

2 сезон

iTunes

iTunes

1

iTunes

iTunes

iTunes

WEBRip

iTunes

30
pack

Вам бонус

ВАЖНО

!!Акция!!

Alien_RageХит недели

RePack

Horizon Zero Dawn

ИГРА 18+

pack

RePack

jed

!!Акция!!

Alien_Rage

RePack

fifa19

RePack

Assassins Creed: Odyssey

RePack

NEED FOR SPEED™ PAYBACK

4 сезон

9 сезон

Бесстыжие 9 сезон

Все сериалы

все сериалы на PB.wtf

RePack

FAR CRY 5
  

История игрушек: Большой побег / Toy Story 3 (Ли Анкрич) [2010, мультфильм, фэнтези, комедия, приключения, семейный, UHD BDRemux 2160p] DUB [Лицензия] piratbit.pw

История игрушек: Большой побег через торрент piratbit.pw

Размер: 35.43 GB | Добавлен: 1 год 3 мес. назад | Торрент скачан:24 раза
Скачать  

30-05-2019 04:29 История игрушек: Большой побег Скачать торрент  

История игрушек: Большой побег / Toy Story 3««The Breakout Comedy Of The Summer»»

Год выпуска: 2010
Страна: США
Жанр: мультфильм, фэнтези, комедия, приключения, семейный, полнометражный
Продолжительность: 01:42:37
Перевод: Дублированный | Лицензия
Субтитры: Русские (Forced, full), английские
Режиссер: Ли Анкрич
В ролях:

Том Хэнкс (Woody, озвучка,), Тим Аллен (Buzz Lightyear, озвучка), Джоан Кьюсак (Jessie, озвучка), Нед Битти (Lotso, озвучка), Дон Риклз (Mr. Potato Head, озвучка), Майкл Китон (Ken, озвучка), Уоллес Шоун (Rex, озвучка), Джон Ратценбергер (Hamm, озвучка), Эстель Харрис (Mrs. Potato Head, озвучка), Джон Моррис (Andy, озвучка), Джоди Бенсон (Barbie, озвучка), Эмили Хан (Bonnie, озвучка)
Описание:
Энди почти 18 лет, ему остаётся 3 дня до отправки в колледж, в то время как его игрушки, в том числе Вуди и Базз Лайтер, гадают о своём будущем. Куда забросит их судьба? На чердак, на свалку или, может быть, в детский сад «Солнышко»? События развиваются в самом неожиданном направлении, и приключения полюбившихся героев продолжаются!
Рейтинг:

MPAA: G - Нет возрастных ограничений
Качество: UHD BDRemux 2160p
Формат: MKV
Видео: MPEG-H HEVC HDR Video, 3840x2160, 40900 Kbit/s, 23.976 fps
Аудио #01: 48 kHz, AC3, 5.1, 448 Kbps | Лицензия | RUS
Аудио #02: 48 kHz, TrueHD, 7.1, 7402 Kbps | Оригинал | ENG
Аудио #03: 48 kHz, AC3, 5.1, 640 Kbps | Оригинал | ENG
Навигация по главам: есть

General
Unique ID : 127614955199980839143678623867315350226 (0x6001BF1142BF55B9A91D7F745EAAEAD2)
Complete name : D:\Video111\Toy.Story.3.2010.BDREMUX.2160p.HDR.seleZen.mkv
Format : Matroska
Format version : Version 4
File size : 35.4 GiB
Duration : 1 h 42 min
Overall bit rate mode : Variable
Overall bit rate : 49.4 Mb/s
Movie name : Toy Story 3 4K 2010 from селезень
Encoded date : UTC 2019-05-29 23:57:47
Writing application : mkvmerge v33.1.0 ('Primrose') 64-bit
Writing library : libebml v1.3.7 + libmatroska v1.5.0

Video
ID : 1
Format : HEVC
Format/Info : High Efficiency Video Coding
Format profile : Main 10@L5.1@High
HDR format : SMPTE ST 2086, HDR10 compatible
Codec ID : V_MPEGH/ISO/HEVC
Duration : 1 h 42 min
Bit rate : 40.9 Mb/s
Width : 3 840 pixels
Height : 2 160 pixels
Display aspect ratio : 16:9
Frame rate mode : Constant
Frame rate : 23.976 (23976/1000) FPS
Original frame rate : 23.976 (24000/1001) FPS
Color space : YUV
Chroma subsampling : 4:2:0 (Type 2)
Bit depth : 10 bits
Bits/(Pixel*Frame) : 0.206
Stream size : 29.3 GiB (83%)
Writing library : ATEME Titan File 3.9.0 (4.9.0.0)
Language : English
Default : Yes
Forced : No
Color range : Limited
Color primaries : BT.2020
Transfer characteristics : PQ
Matrix coefficients : BT.2020 non-constant
Mastering display color pri : Display P3
Mastering display luminance : min: 0.0000 cd/m2, max: 1000 cd/m2

Audio #1
ID : 2
Format : AC-3
Format/Info : Audio Coding 3
Commercial name : Dolby Digital
Codec ID : A_AC3
Duration : 1 h 42 min
Bit rate mode : Constant
Bit rate : 448 kb/s
Channel(s) : 6 channels
Channel layout : L R C LFE Ls Rs
Sampling rate : 48.0 kHz
Frame rate : 31.250 FPS (1536 SPF)
Bit depth : 16 bits
Compression mode : Lossy
Stream size : 328 MiB (1%)
Title : Dub [License]
Language : Russian
Service kind : Complete Main
Default : Yes
Forced : Yes

Audio #2
ID : 3
Format : MLP FBA 16-ch
Format/Info : Meridian Lossless Packing FBA with 16-channel presentation
Commercial name : Dolby TrueHD with Dolby Atmos
Codec ID : A_TRUEHD
Duration : 1 h 42 min
Bit rate mode : Variable
Bit rate : 7 402 kb/s
Maximum bit rate : 8 814 kb/s
Channel(s) : 8 channels
Channel layout : L R C LFE Ls Rs Lb Rb
Sampling rate : 48.0 kHz
Frame rate : 1 200.000 FPS (40 SPF)
Compression mode : Lossless
Delay relative to video : 32 ms
Stream size : 5.30 GiB (15%)
Title : Original
Language : English
Default : No
Forced : No
Number of dynamic objects : 13
Bed channel count : 1 channel
Bed channel configuration : LFE

Audio #3
ID : 4
Format : AC-3
Format/Info : Audio Coding 3
Commercial name : Dolby Digital
Codec ID : A_AC3
Duration : 1 h 42 min
Bit rate mode : Constant
Bit rate : 640 kb/s
Channel(s) : 6 channels
Channel layout : L R C LFE Ls Rs
Sampling rate : 48.0 kHz
Frame rate : 31.250 FPS (1536 SPF)
Bit depth : 16 bits
Compression mode : Lossy
Delay relative to video : 31 ms
Stream size : 469 MiB (1%)
Language : English
Service kind : Complete Main
Default : No
Forced : No

Text #1
ID : 5
Format : UTF-8
Codec ID : S_TEXT/UTF8
Codec ID/Info : UTF-8 Plain Text
Duration : 35 min 3 s
Bit rate : 3 b/s
Count of elements : 21
Stream size : 946 Bytes (0%)
Title : Forced
Language : Russian
Default : Yes
Forced : Yes

Text #2
ID : 6
Format : UTF-8
Codec ID : S_TEXT/UTF8
Codec ID/Info : UTF-8 Plain Text
Duration : 1 h 41 min
Bit rate : 90 b/s
Count of elements : 1268
Stream size : 67.2 KiB (0%)
Title : Full
Language : Russian
Default : No
Forced : No

Text #3
ID : 7
Format : UTF-8
Codec ID : S_TEXT/UTF8
Codec ID/Info : UTF-8 Plain Text
Duration : 1 h 41 min
Bit rate : 57 b/s
Count of elements : 1263
Stream size : 42.8 KiB (0%)
Title : Full
Language : English
Default : No
Forced : No

Text #4
ID : 8
Format : UTF-8
Codec ID : S_TEXT/UTF8
Codec ID/Info : UTF-8 Plain Text
Duration : 1 h 36 min
Bit rate : 69 b/s
Count of elements : 1568
Stream size : 49.1 KiB (0%)
Title : SDH
Language : English
Default : No
Forced : No

Menu
00:00:00.000 : en:Western Adventure
00:04:54.377 : en:Playtime
00:06:21.088 : en:Grown Up
00:11:38.239 : en:College Packing
00:15:18.000 : en:Thrown Away
00:18:35.030 : en:Going to Daycare
00:19:24.705 : en:Sunnyside Welcome
00:26:17.951 : en:What About Andy?
00:29:00.238 : en:Woody Leaves
00:31:48.656 : en:Rough Play
00:33:23.167 : en:Bonnie
00:35:50.898 : en:We're Trapped!
00:37:30.956 : en:Gambling Den
00:40:12.159 : en:Where's Home?
00:41:13.470 : en:Lotso's Offer
00:43:38.323 : en:I See Andy
00:44:50.103 : en:Locked Up
00:48:20.355 : en:Lotso's Story
00:52:28.895 : en:Daybreak
00:53:52.729 : en:Woody Returns
00:57:12.804 : en:Reunited
00:58:21.539 : en:Prison Break
01:01:10.833 : en:Ken's Closet
01:02:07.473 : en:Prison Riot
01:02:57.857 : en:Mr. Tortilla Head
01:06:35.866 : en:Spanish Buzz
01:11:22.569 : en:Caught
01:15:58.094 : en:Garbage Truck
01:17:36.651 : en:The Dump
01:19:44.028 : en:End Of The Line
01:23:02.768 : en:Safe And Sound
01:25:00.428 : en:Back Home
01:28:16.415 : en:Good Bye, Andy
01:34:19.111 : en:End Credits
piratbit.pw



Скачать История игрушек: Большой побег через торрент https://b.radikal.ru/b13/1905/4c/19bdab89f398.jpg Скачать фильм История игрушек: Большой побег через торрент бесплантно в хорошем качестве Описание: Энди почти 18 лет, ему остаётся 3 дня до отправки в колледж, в то время как его игрушки, в том числе Вуди и Базз Лайтер, гадают о ... 5 10 1
Торрент: Зарегистрирован [2019-05-30 04:29] · скачан: 24 раз
Статус: √ проверено
Размер: 35.43 GB
Как cкачать? Как скачать История игрушек: Большой побег через торрент | qTorrent

% Раздел Тема Автор DL S | L
Мультфильмы (48-60 fps) [ 4.78 GB ] История игрушек: Большой побег / Toy Story 3 [2010 мультфильм BDRip 720p + Оригинал| 60 FPS] Trava-HD Скачать
2 | 0
Зарубежные Мультфильмы (BDRip 1080p, 720p, Blu-ray, BD-Remux) [ 2.16 GB ] История игрушек: Большой побег / Toy Story 3 [2010 мультфильм BDRip 720p] diletant Скачать
1 | 0
Иностранные мультфильмы [ 1.37 GB ] История игрушек: Большой побег / Toy Story 3 [2010 мультфильм ... DVDRip лицензия] -=DarkJaguar=- Скачать
1 | 0
Зарубежные Мультфильмы (DVD) [ 11.19 GB ] История игрушек: Большой побег / Toy Story 3 [2010 детский DVD9 + DVD5 ] 2-х дисковое специальное издание ACFIORENTINA Скачать
1 | 0
Иностранные мультфильмы [ 1.74 GB ] История игрушек: Большой побег / Toy Story 3 [2010 мультфильм HDRip] ACFIORENTINA Скачать
1 | 0
Иностранные мультфильмы [ 700 MB ] История игрушек: Большой побег / Toy Story 3 [2010 мультфильм DVDRip лицензия] .::}{0TT@БЬ)Ч::. Скачать
1 | 0
Аркады [ 3.31 GB ] История игрушек: Большой побег / Toy Story 3: The Video Game [лицензияRUArcade / 3D] IZnoGood Скачать
1 | 0

28-11-2019 20:33  

Отключить всю рекламу на сайте

    Дорогой пользователь! Огромная просьба, поблагодарите релизера, оцените раздачу и оставьте свои комментарий, если Вы скачали История игрушек: Большой побег через торрент бесплатно! Внесите свою лепту в развитие PiratBit!
    Комментировать посты могут только пользователи прошедшие не сложную регистрацию
    Показать сообщения:    

    История игрушек: Большой побег через торрент
    Скачать бесплатно История игрушек: Большой побег
    История игрушек: Большой побег скачать торрент
    История игрушек: Большой побег смотреть онлайн
    Cкачать фильм История игрушек: Большой побег бесплатно
    История игрушек: Большой побег скачать торрент в хорошем качестве
    История игрушек: Большой побег смотреть онлайн бесплатно в хорошем качестве


    Вы не можете начинать темы
    Вы не можете отвечать на сообщения
    Вы не можете редактировать свои сообщения
    Вы не можете удалять свои сообщения
    Вы не можете голосовать в опросах
    Вы не можете прикреплять файлы к сообщениям
    Вы можете скачивать файлы