Мега распродажа FORZA HORIZON 4 ULTIMATE+ВСЕ DLC+ОНЛАЙН всего за 499р. 349 руб. (супер цена). Внимание количество ограничено!!!

Лицензия

30

iTunes

мы

iTunes

1

1 сезон

Чернобыль

1 сезон

Ральф против интернета

MVO

Покемон. Детектив Пикачу

8 сезон

Игра престолов

iTunes

1+1

ИГРА 18+

pack

ВАЖНО

!!Акция!!

Alien_RageХит недели

RePack

Resident Evil 21
pack

RePack

Metro:Exodus

!!Акция!!

Alien_Rage

RePack

fifa19

RePack

Assassins Creed: Odyssey

RePack

NEED FOR SPEED™ PAYBACK

3 сезон

9 сезон

Бесстыжие 9 сезон

Все сериалы

все сериалы на PB.wtf

RePack

FAR CRY 5
Ребята, катастрофически не хватает 2730р. для оплаты серверов за МАЙ (всвязи с блокировками трафик упал в 3 раза), 1-2р., выручайте.
  

Великолепная пятерка / Сезон: 1 / Серии: 1-14 из 32 (Сергей Полуянов) [2019, Детектив, драма, SATRip] piratbit.pw

Великолепная пятерка через торрент piratbit.pw

Раздают: 1 [ 624 KB/s ] Качают: 1 [ 0 KB/s ]
Размер: 7.45 GB | Добавлен: 18 ч. назад | Торрент скачан:1 раз
Скачать  

27-05-2019 14:46 Великолепная пятерка Скачать торрент  

Великолепная пятерка Год выпуска: 2019
Страна: Россия
Жанр: Детектив, драма
Продолжительность: ~ 00:40:00 серия
Субтитры: отсутствуют

Режиссер: Сергей Полуянов



В ролях:

Павел Григорьев, Андрей Горбачёв, Алексей Красноцветов, Нодар Джанелидзе, Константин Гришанов, Егор Кутенков, Екатерина Проскурина, Евгения Любимова, Олеся Бережная, Анна Лутцева, Елизавета Ковалёва, Анна Щетинина, Наталья Мызникова, Вячеслав Аркунов, Глафира Козулина и др.

Описание:

О буднях оперов «убойного» отдела Петровского РОВД Петербурга. Пятёрка — по количеству сотрудников. Майор Павел Шапошников, капитаны Дмитрий Красавченко и Тимур Бубнов, старший лейтенант Антон Ветров и лейтенант Владимир Кузьмин. Пять разных характеров, которые сплотил их командир, подполковник Андрей Голованов — человек с хорошим чувством юмора и богатым прошлым. Он еще помнит, когда в Петербурге были улицы разбитых фонарей. Время изменилось: милиция стала полицией, город преобразился, но человеческие страсти по-прежнему кипят вовсю. Месть, зависть, страх, любострастие, корысть толкают одних на преступления, а честь, совесть, справедливость и смелость заставляют других противостоять злу. Герои «великолепной пятёрки» наказывают зло ежедневно. Удивительно, но в этой рутине у них остается время на любовь, дружбу и юмор.

Качество: SATRip
Формат: AVI

Видео: XviD, ~ 1 850 Кбит/с, 720x400
Аудио: MP3, 2 ch, 192 Кбит/с
скриншот  скриншот  скриншот  

Общее
Полное имя : D:\Velikolepnaya.pyaterka. .2019\Velikolepnaya.pyaterka.01.SATRip.avi
Формат : AVI
Формат/Информация : Audio Video Interleave
Размер файла : 545 Мбайт
Продолжительность : 39 м. 21 с.
Общий поток : 1938 Кбит/сек
Программа кодирования : VirtualDubMod 1.5.10.3 | www.virtualdub-fr.org || (build 2550/release)
Библиотека кодирования : VirtualDubMod build 2550/release

Видео
Идентификатор : 0
Формат : MPEG-4 Visual
Профиль формата : Advanced Simple@L5
Параметр BVOP формата : 2
Параметр QPel формата : Нет
Параметр GMC формата : Без точки перехода
Параметр матрицы формата : Default (H.263)
Идентификатор кодека : XVID
Идентификатор кодека/Подсказка : XviD
Продолжительность : 39 м. 21 с.
Битрейт : 1800 Кбит/сек
Ширина : 720 пикселей
Высота : 400 пикселей
Соотношение сторон : 16:9
Частота кадров : 25,000 кадров/сек
Цветовое пространство : YUV
Субдискретизация насыщенности : 4:2:0
Битовая глубина : 8 бит
Тип развёртки : Прогрессивная
Метод сжатия : С потерями
Бит/(Пиксели*Кадры) : 0.250
Размер потока : 507 Мбайт (93%)
Библиотека кодирования : XviD 1.2.1 (UTC 2008-12-04)

Аудио
Идентификатор : 1
Формат : MPEG Audio
Версия формата : Version 1
Профиль формата : Layer 3
Режим : Joint stereo
Расширение режима : MS Stereo
Идентификатор кодека : 55
Идентификатор кодека/Подсказка : MP3
Продолжительность : 39 м. 21 с.
Вид битрейта : Постоянный
Битрейт : 128 Кбит/сек
Каналы : 2 канала
Частота : 48,0 КГц
Метод сжатия : С потерями
Размер потока : 36,0 Мбайт (7%)
Выравнивание : Соединение по промежуткам
Продолжительность промежутка : 40 мс. (1,00 видеокадр)
Время предзагрузки промежутка : 504 мс.
Библиотека кодирования : LAME3.99r
Настройки программы : -m j -V 4 -q 9 -lowpass 17 -b 128

Когда раздача ведётся путём добавления новых серий, при каждом добавлении создётся новый торрент. Чтобы начать докачку новой серии, пользователям необходимо сделать следующее:
(1) остановить скачивание,
(2) удалить старый торрент у себя из клиента (старые серии удалять не надо),
(3) скачать новый торрент и запустить его у себя в клиенте вместо старого, при этом указать клиенту путь в старую папку, куда и должно происходить скачивание новых серий.
Ваш клиент при этом должен произвести хеширование (проверку) старой папки (если не производит сам - помогите ему сделать это), и будет докачивать только те серии, которых у вас ещё нет. Старые серии при этом не удаляются, а продолжают раздаваться!
Eсли вы уже удалили старые серии, то предотвратить повторную закачку старых серий можно, отжав галочку в соответсвующих местах при запуске нового торрента. По возможности, желательно не удалять старые серии как можно дольше, чтобы релизёр не столько продолжал раздавать старые серии, а смог сконцентрироваться на новых.
piratbit.pw



Скачать Великолепная пятерка через торрент https://a.radikal.ru/a14/1905/3f/bf2f7b2edd78.jpg Скачать фильм Великолепная пятерка через торрент бесплантно в хорошем качестве Описание: О буднях оперов «убойного» отдела Петровского РОВД Петербурга. Пятёрка — по количеству сотрудников. Майор Павел Шапошников, ... 8.2 10 6
Торрент: Зарегистрирован [2019-06-19 17:12] · скачан: 1 раз
Статус: √ проверено
Размер: 7.45 GB
Как cкачать? Как скачать Великолепная пятерка через торрент | qTorrent


>> Регистрируемся здесь <<






Отзывы и комментарии о схеме читаем и пишем здесь: ---> Отзывы и комментарии о схеме

Новые благодарочки в телеграм довольных пользователей:
скриншот   скриншот   скриншот   скриншот   скриншот
    Дорогой пользователь! Огромная просьба, поблагодарите релизера, оцените раздачу и оставьте свои комментарий, если Вы скачали Великолепная пятерка через торрент бесплатно! Внесите свою лепту в развитие PiratBit!
    Комментировать посты могут только пользователи прошедшие не сложную регистрацию
    Показать сообщения:    

    Великолепная пятерка через торрент
    Скачать бесплатно Великолепная пятерка
    Великолепная пятерка скачать торрент
    Великолепная пятерка смотреть онлайн
    Cкачать фильм Великолепная пятерка бесплатно
    Великолепная пятерка скачать торрент в хорошем качестве
    Великолепная пятерка смотреть онлайн бесплатно в хорошем качестве


    Вы не можете начинать темы
    Вы не можете отвечать на сообщения
    Вы не можете редактировать свои сообщения
    Вы не можете удалять свои сообщения
    Вы не можете голосовать в опросах
    Вы не можете прикреплять файлы к сообщениям
    Вы можете скачивать файлы