1 сезон

1 сезон

iTunes

1

КиноПоиск HD

Кинопоиск HD

iTunes

13

1 сезон

RePack

30

Deluxe

ВАЖНО

ИГРА 18+

pack

RePack

MK11
pack

Легкие деньги

RePack

jed

RePack

fifa19

RePack

RDR2

RePack

NEED FOR SPEED™ PAYBACK

4 сезон

9 сезон

Бесстыжие 9 сезон

Все сериалы

все сериалы на PB.wtf

RePack

FAR CRY 5
  
Magnet ссылка

Техасская резня бензопилой / The Texas Chainsaw Massacre (Маркус Ниспел) [2003 г., Ужасы, BDRip, Дубляж] piratbit.pw

Техасская резня бензопилой через торрент piratbit.pw

Размер: 1.8 GB | Добавлен: 1 год 11 мес. назад | Торрент скачан:0 раз
Скачать  

27-05-2019 11:19 Техасская резня бензопилой Скачать торрент  

Техасская резня бензопилой /
The Texas Chainsaw Massacre
Год выпуска: 2003
Страна: США
Жанр: Ужасы
Продолжительность: 01:38:17
Перевод: Дубляж
Субтитры: отсутствуют

Режиссер: Маркус Ниспел

Премьера в мире: 15 октября 2003

rating

В ролях: Джессика Бил, Джонатан Такер, Эрика Лирсен, Майк Фогель, Эрик Бальфур, Эндрю Бринярски, Р. Ли Эрми, Дэвид Дорфман, Лорен Джерман, Терренс Эванс

Описание: В штате Техас на ферме обычного работника скотобойни Томаса Хьюитта полиция обнаружила 33 изувеченных человеческих тела. Ужасающее открытие шокировало людей, и было названо самым жутким массовым убийством за все время. Газеты писали: «Дом террора национального масштаба. Бойня в Техасе». Пресса окрестила убийцу как «Человек с лицом из кожи».
Местные власти застрелили человека, носившего на лице кожаную маску. Дело было закрыто. Но в последующие годы, множество убийств показало, что полиция нашла не того преступника. Случайно уцелевший свидетель рассказал настоящую историю того, что на самом деле произошло на заброшенном техасском шоссе, когда пятеро подростков оказались в ловушке у безумного человека с бензопилой…

Качество: BDRip
Формат: AVI
Видео кодек: XviD
Аудио кодек: AC3
Видео: XviD, 704х400 (16:9), ~2169, 0.321 bit/pixel
Аудио#1: AC3, 6 ch, 448 kbps - Дубляж
Релиз от: winchester00100010
Общее
Полное имя : E:\МОИ РАЗДАЧИ ФИЛЬМЫ И СЕРИАЛЫ\The.Texas.Chainsaw.Massacre.2003.BDRip.avi
Формат : AVI
Формат/Информация : Audio Video Interleave
Размер файла : 1,80 Гбайт
Продолжительность : 1 ч. 38 м.
Общий поток : 2626 Кбит/сек
Программа кодирования : VirtualDubMod 1.5.10.3 | www.virtualdub-fr.org || (build 2550/release)
Библиотека кодирования : VirtualDubMod build 2550/release

Видео
Идентификатор : 0
Формат : MPEG-4 Visual
Профиль формата : Advanced Simple@L5
Настройки формата : BVOP1 / Custom Matrix
Параметр BVOP формата : 1
Параметр QPel формата : Нет
Параметр GMC формата : Без точки перехода
Параметр матрицы формата : Выборочная
Идентификатор кодека : XVID
Идентификатор кодека/Подсказка : XviD
Продолжительность : 1 ч. 38 м.
Битрейт : 2169 Кбит/сек
Ширина : 704 пикселя
Высота : 400 пикселей
Соотношение сторон : 16:9
Частота кадров : 23,976 (24000/1001) кадра/сек
Частота кадров в оригинале : 23,976 (23976/1000) кадра/сек
Цветовое пространство : YUV
Субдискретизация насыщенности : 4:2:0
Битовая глубина : 8 бит
Тип развёртки : Прогрессивная
Метод сжатия : С потерями
Бит/(Пиксели*Кадры) : 0.321
Размер потока : 1,49 Гбайт (83%)
Библиотека кодирования : XviD 73

Аудио
Идентификатор : 1
Формат : AC-3
Формат/Информация : Audio Coding 3
Коммерческое название : Dolby Digital
Идентификатор кодека : 2000
Продолжительность : 1 ч. 38 м.
Вид битрейта : Постоянный
Битрейт : 448 Кбит/сек
Каналы : 6 каналов
ChannelLayout : L R C LFE Ls Rs
Частота : 48,0 КГц
Частота кадров : 31,250 кадров/сек (1536 SPF)
Битовая глубина : 16 бит
Метод сжатия : С потерями
Размер потока : 315 Мбайт (17%)
Выравнивание : Разделение по промежуткам
Продолжительность промежутка : 42 мс. (1,00 видеокадр)
Время предзагрузки промежутка : 500 мс.
ServiceKind/String : Complete Main

piratbit.pw



Скачать Техасская резня бензопилой через торрент https://d.radikal.ru/d10/1804/f9/25462f2a1b49.jpg Скачать фильм Техасская резня бензопилой через торрент бесплантно в хорошем качестве Описание: В штате Техас на ферме обычного работника скотобойни Томаса Хьюитта полиция обнаружила 33 изувеченных человеческих тела. ... 5 10 1
Торрент: Зарегистрирован [2019-05-27 11:19] · скачан: 0 раз
Статус: √ проверено
Размер: 1.8 GB
Как cкачать? Как скачать Техасская резня бензопилой через торрент | UTorrent

% Раздел Тема Автор DL S | L
Фильмы [HD 720p, 1080p] (Хороший звук DUB, MVO) [ 6.59 GB ] Техасская резня бензопилой / The Texas Chainsaw Massacre [2003 BDRip 720p ] DUB DVO AVO [UK Transfer] winchester00100010 Скачать
1 | 0
Фильмы [HD 720p, 1080p] (Хороший звук DUB, MVO) [ 5.75 GB ] Техасская резня бензопилой: Начало / The Texas Chainsaw Massacre: The Beginning [2006 BDRip 720p ] [Theatrical Cut] winchester00100010 Скачать
2 | 0
Фильмы [HD 720p, 1080p] (Хороший звук DUB, MVO) [ 3.85 GB ] Техасская резня бензопилой 4: Новое поколение / Texas Chainsaw Massacre: The Next Generation [1994 BDRip 720p ] [Theatrical Cut] winchester00100010 Скачать
1 | 0
Фильмы [HD 720p, 1080p] (Хороший звук DUB, MVO) [ 3.33 GB ] Техасская резня бензопилой 3: Кожаное лицо / Leatherface: Texas Chainsaw Massacre III [1990 BDRip 720p ] [Unrated] winchester00100010 Скачать
2 | 0
Фильмы [HD 720p, 1080p] (Хороший звук DUB, MVO) [ 13.1 GB ] Техасская резня бензопилой / The Texas Chainsaw Massacre [2003 BDRip 1080p by msltel] DUB 2 x DVO 2 x AVO msltel Скачать
1 | 0
Фильмы [HD 720p, 1080p] (Хороший звук DUB, MVO) [ 5.57 GB ] Техасская резня бензопилой / The Texas Chainsaw Massacre [2003 BDRip 720p by msltel] DUB 2 x DVO 2 x AVO msltel Скачать
1 | 0
Фильмы (Blu-ray, BD-Remux, HDDVD) [ 25.28 GB ] Техасская резня бензопилой / The Texas Chainsaw Massacre [2003 ремейк BDRemux 1080p] DUB + DVO + AVO sheker187 Скачать
1 | 0

28-11-2019 20:33  

Отключить всю рекламу на сайте

27-05-2019 11:21 Техасская резня бензопилой Скачать торрент  

Всем приятного просмотра)piratbit.pw



    Дорогой пользователь! Огромная просьба, поблагодарите релизера, оцените раздачу и оставьте свои комментарий, если Вы скачали Техасская резня бензопилой через торрент бесплатно! Внесите свою лепту в развитие PiratBit!
    Комментировать посты могут только пользователи прошедшие не сложную регистрацию
    Показать сообщения:    

    Техасская резня бензопилой через торрент
    Скачать бесплатно Техасская резня бензопилой
    Техасская резня бензопилой скачать торрент
    Техасская резня бензопилой смотреть онлайн
    Cкачать фильм Техасская резня бензопилой бесплатно
    Техасская резня бензопилой скачать торрент в хорошем качестве
    Техасская резня бензопилой смотреть онлайн бесплатно в хорошем качестве


    Вы не можете начинать темы
    Вы не можете отвечать на сообщения
    Вы не можете редактировать свои сообщения
    Вы не можете удалять свои сообщения
    Вы не можете голосовать в опросах
    Вы не можете прикреплять файлы к сообщениям
    Вы можете скачивать файлы