1 сезон

1 сезон

iTunes

1

КиноПоиск HD

Кинопоиск HD

iTunes

13

1 сезон

RePack

30

Новинка

ВАЖНО

ИГРА 18+

pack

RePack

MK11
pack

Легкие деньги

RePack

jed

RePack

fifa19

RePack

RDR2

RePack

NEED FOR SPEED™ PAYBACK

4 сезон

9 сезон

Бесстыжие 9 сезон

Все сериалы

все сериалы на PB.wtf

RePack

FAR CRY 5
  
Magnet ссылка

Секта / La Setta (Микеле Соави) [1991, ужасы, BDRip 720p] 3xAVO (Гаврилов, Алексеев, Штейн) piratbit.pw

Секта через торрент piratbit.pw

Размер: 7.26 GB | Добавлен: 1 год 9 мес. назад | Торрент скачан:3 раза
Скачать  

26-05-2019 21:10 Секта Скачать торрент  

Секта / La Setta Год выпуска: 1991

Страна: Италия

Жанр: Ужасы

Продолжительность: 01:56:51

Перевод: Авторский (одноголосый)

Субтитры: Английские

Режиссер: Микеле Соави

rating

В ролях: Келли Кертис, Херберт Лом, Марианджела Джордано, Карла Кассола, Джованни Ломбардо Радице, Томас Арана, Дональд О`Брайэн, Мишель Адатте, Анжелика Мария Бек, Нильс Гуллов

Описание: В жизни обыкновенной школьной учительницы Марион появляется пожилой человек. Он выглядит уверенным, серьёзным, спокойным. Но вскоре становится понятно, что его планы не так чисты, как можно было подумать сначала. Оказывается, он намерен оплодотворить Марион Антихристом, а сам он является главой секты поклонников Сатаны.
Качество: BDRip 720p
Формат: MKV
Видео: MPEG-4 AVC, 8100 Кбит/с, 1280x720
Аудио#1: Русский, AC3, 2 ch, 192 Кбит/с - AVO (Андрей Гаврилов)
Аудио#2: Русский, AC3, 2 ch, 192 Кбит/с - AVO (Антон Алексеев)
Аудио#3: Русский, AC3, 2 ch, 192 Кбит/с - AVO (Владимир Штейн)
Аудио#4: Английский, AC3, 2 ch, 224 Кбит/с
Видео
Идентификатор : 1
Формат : AVC
Формат/Информация : Advanced Video Codec
Профиль формата : High@L4.1
Настройки формата : CABAC / 9 Ref Frames
Параметр CABAC формата : Да
Параметр RefFrames формата : 9 кадров
Идентификатор кодека : V_MPEG4/ISO/AVC
Продолжительность : 1 ч. 56 м.
Битрейт : 8100 Кбит/сек
Ширина : 1280 пикселей
Высота : 720 пикселей
Соотношение сторон : 16:9
Режим частоты кадров : Постоянный
Частота кадров : 23,976 (24000/1001) кадра/сек
Цветовое пространство : YUV
Субдискретизация насыщенности : 4:2:0
Битовая глубина : 8 бит
Тип развёртки : Прогрессивная
Бит/(Пиксели*Кадры) : 0.367
Размер потока : 6,61 Гбайт (91%)
Заголовок : La.Setta.1991.BDRip.720p.x264-MM
Библиотека кодирования : x264 core 157 r2935 545de2f
Настройки программы : cabac=1 / ref=9 / deblock=1:-3:-3 / analyse=0x3:0x133 / me=umh / subme=11 / psy=1 / psy_rd=1.01:0.00 / mixed_ref=1 / me_range=48 / chroma_me=1 / trellis=2 / 8x8dct=1 / cqm=0 / deadzone=21,11 / fast_pskip=0 / chroma_qp_offset=-2 / threads=12 / lookahead_threads=3 / sliced_threads=0 / nr=0 / decimate=0 / interlaced=0 / bluray_compat=0 / constrained_intra=0 / bframes=12 / b_pyramid=2 / b_adapt=2 / b_bias=0 / direct=3 / weightb=1 / open_gop=1 / weightp=2 / keyint=250 / keyint_min=23 / scenecut=40 / intra_refresh=0 / rc_lookahead=60 / rc=2pass / mbtree=0 / bitrate=8100 / ratetol=1.0 / qcomp=0.60 / qpmin=0 / qpmax=69 / qpstep=4 / cplxblur=20.0 / qblur=0.5 / vbv_maxrate=50000 / vbv_bufsize=62500 / nal_hrd=none / filler=0 / ip_ratio=1.40 / pb_ratio=1.30 / aq=1:1.10
Язык : English
Default : Да
Forced : Нет

Аудио #1
Идентификатор : 2
Формат : AC-3
Формат/Информация : Audio Coding 3
Коммерческое название : Dolby Digital
Идентификатор кодека : A_AC3
Продолжительность : 1 ч. 47 м.
Вид битрейта : Постоянный
Битрейт : 192 Кбит/сек
Каналы : 2 канала
Channel layout : L R
Частота : 48,0 КГц
Частота кадров : 31,250 кадров/сек (1536 SPF)
Битовая глубина : 16 бит
Метод сжатия : С потерями
Размер потока : 147 Мбайт (2%)
Заголовок : AVO Андрей Гаврилов
Язык : Russian
ServiceKind/String : Complete Main
Default : Да
Forced : Нет

Аудио #2
Идентификатор : 3
Формат : AC-3
Формат/Информация : Audio Coding 3
Коммерческое название : Dolby Digital
Идентификатор кодека : A_AC3
Продолжительность : 1 ч. 47 м.
Вид битрейта : Постоянный
Битрейт : 192 Кбит/сек
Каналы : 2 канала
Channel layout : L R
Частота : 48,0 КГц
Частота кадров : 31,250 кадров/сек (1536 SPF)
Битовая глубина : 16 бит
Метод сжатия : С потерями
Размер потока : 147 Мбайт (2%)
Заголовок : AVO Антон Алексеев
Язык : Russian
ServiceKind/String : Complete Main
Default : Нет
Forced : Нет

Аудио #3
Идентификатор : 4
Формат : AC-3
Формат/Информация : Audio Coding 3
Коммерческое название : Dolby Digital
Идентификатор кодека : A_AC3
Продолжительность : 1 ч. 47 м.
Вид битрейта : Постоянный
Битрейт : 192 Кбит/сек
Каналы : 2 канала
Channel layout : L R
Частота : 48,0 КГц
Частота кадров : 31,250 кадров/сек (1536 SPF)
Битовая глубина : 16 бит
Метод сжатия : С потерями
Размер потока : 147 Мбайт (2%)
Заголовок : AVO Владимир Штейн
Язык : Russian
ServiceKind/String : Complete Main
Default : Нет
Forced : Нет

Аудио #4
Идентификатор : 5
Формат : AC-3
Формат/Информация : Audio Coding 3
Коммерческое название : Dolby Digital
Идентификатор кодека : A_AC3
Продолжительность : 1 ч. 56 м.
Вид битрейта : Постоянный
Битрейт : 224 Кбит/сек
Каналы : 2 канала
Channel layout : L R
Частота : 48,0 КГц
Частота кадров : 31,250 кадров/сек (1536 SPF)
Битовая глубина : 16 бит
Метод сжатия : С потерями
Размер потока : 187 Мбайт (3%)
Заголовок : English
Язык : English
ServiceKind/String : Complete Main
Default : Нет
Forced : Нет

Текст
Идентификатор : 6
Формат : PGS
Режим смешивания : zlib
Идентификатор кодека : S_HDMV/PGS
Идентификатор кодека/Информация : Picture based subtitle format used on BDs/HD-DVDs
Продолжительность : 1 ч. 46 м.
Битрейт : 14,9 Кбит/сек
ElementCount : 982
Размер потока : 11,4 Мбайт (0%)
Язык : English
Default : Да
Forced : Нет

Меню
00:00:00.000 : en:Chapter 1
00:07:54.265 : en:Chapter 2
00:20:00.365 : en:Chapter 3
00:29:30.769 : en:Chapter 4
00:42:55.864 : en:Chapter 5
00:52:28.979 : en:Chapter 6
01:03:02.278 : en:Chapter 7
01:16:50.731 : en:Chapter 8
01:32:03.976 : en:Chapter 9
01:45:32.492 : en:Chapter 10
01:56:51.129 : en:Chapter 11 / en:Chapter 12

скриншот   скриншот   скриншот   скриншот   скриншот  

piratbit.pw



Скачать Секта через торрент https://i2.imageban.ru/out/2019/05/27/6fe060536c544006ca176210f0b27b1f.gif Скачать фильм Секта через торрент бесплантно в хорошем качестве Описание: В жизни обыкновенной школьной учительницы Марион появляется пожилой человек. Он выглядит уверенным, серьёзным, спокойным. Но ... 10 10 1
× Info от релизера! Исправлена проблема с чаптерами и звуком, перекачайте пожалуйста.
Торрент: Зарегистрирован [2019-06-26 12:26] · скачан: 3 раз
Статус: √ проверено
Размер: 7.26 GB
Как cкачать? Как скачать Секта через торрент | UTorrent

28-11-2019 20:33  

Отключить всю рекламу на сайте

    Дорогой пользователь! Огромная просьба, поблагодарите релизера, оцените раздачу и оставьте свои комментарий, если Вы скачали Секта через торрент бесплатно! Внесите свою лепту в развитие PiratBit!
    Комментировать посты могут только пользователи прошедшие не сложную регистрацию
    Показать сообщения:    

    Секта через торрент
    Скачать бесплатно Секта
    Секта скачать торрент
    Секта смотреть онлайн
    Cкачать фильм Секта бесплатно
    Секта скачать торрент в хорошем качестве
    Секта смотреть онлайн бесплатно в хорошем качестве


    Вы не можете начинать темы
    Вы не можете отвечать на сообщения
    Вы не можете редактировать свои сообщения
    Вы не можете удалять свои сообщения
    Вы не можете голосовать в опросах
    Вы не можете прикреплять файлы к сообщениям
    Вы можете скачивать файлы