1 сезон

1 сезон

iTunes

1

КиноПоиск HD

Кинопоиск HD

iTunes

13

1 сезон

RePack

30

Новинка

ВАЖНО

ИГРА 18+

pack

RePack

MK11
pack

Легкие деньги

RePack

jed

RePack

fifa19

RePack

RDR2

RePack

NEED FOR SPEED™ PAYBACK

4 сезон

9 сезон

Бесстыжие 9 сезон

Все сериалы

все сериалы на PB.wtf

RePack

FAR CRY 5
  
Magnet ссылка

Хэнговер-сквер / Hangover Square (Джон Брам) [1945, ужасы, триллер, драма, криминал, BDRip 1080p by msltel] AVO piratbit.pw

Хэнговер-сквер через торрент piratbit.pw

Размер: 7.35 GB | Добавлен: 1 год 10 мес. назад | Торрент скачан:1 раз
Скачать  

25-05-2019 08:56 Хэнговер-сквер Скачать торрент  

Название: Хэнговер-сквер
Оригинальное название: Hangover Square
Год выпуска: 1945
Страна: США
Жанр: ужасы, триллер, драма, криминал
Продолжительность: 01:17:53
Перевод: авторский

Режиссер: Джон Брам
В ролях: Лэйрд Крегар, Линда Дарнелл, Джордж Сандерс, Гленн Ланган, Фэй Марлоу, Алан Напье, Гарри Аллен, Редфорд Аллен, Джимми Обри, Дж.В. Остин

О фильме: В начале XX века в Лондоне над своим концертом для фортепиано работал композитор Джордж Боун. Концерт давался ему нелегко. Причём каждый раз, когда Боуна переставало удовлетворять написанное, он терял сознание. В себя он приходил обычно на другом конце города, а позже читал в газетах, что в это самое время в Лондоне происходило очередное зверское убийство... В основу фильма положен одноимённый роман Патрика Хэмилтона (1941)



Качество: BDRip 1080p
Формат: MKV
Видео: MPEG-4 AVC, 10.5 Mбит/с, 1478x1080
Аудио 1: русский, DTS, 1509 kbps, 2 ch, 48 kHz [авторский, Дмитрий Есарев]
Аудио 2: английский, DTS, 1509 kbps, 2 ch, 48 kHz [оригинал]
Субтитры: английские
Главы/чаптеры
Общее
Уникальный идентификатор : 234104244899162253066986215519240065429 (0xB01ED668C1790979B51EBCDFE6301195)
Полное имя : D:\Video\Хэнговер-сквер.1945.BDRip 1080p by msltel.mkv
Формат : Matroska
Версия формата : Version 4
Размер файла : 7,35 Гбайт
Продолжительность : 1 ч. 17 м.
Общий поток : 13,5 Мбит/сек
Название фильма : Rip by msltel
Дата кодирования : UTC 2019-05-25 04:05:18
Программа кодирования : mkvmerge v8.2.0 ('World of Adventure') 64bit
Библиотека кодирования : libebml v1.3.1 + libmatroska v1.4.2

Видео
Идентификатор : 1
Формат : AVC
Формат/Информация : Advanced Video Codec
Профиль формата : High@L4.1
Настройки формата : CABAC / 4 Ref Frames
Параметр CABAC формата : Да
Параметр RefFrames формата : 4 кадра
Идентификатор кодека : V_MPEG4/ISO/AVC
Продолжительность : 1 ч. 17 м.
Битрейт : 10,5 Мбит/сек
Ширина : 1478 пикселей
Высота : 1080 пикселей
Соотношение сторон : 4:3
Режим частоты кадров : Постоянный
Частота кадров : 23,976 (24000/1001) кадра/сек
Цветовое пространство : YUV
Субдискретизация насыщенности : 4:2:0
Битовая глубина : 8 бит
Тип развёртки : Прогрессивная
Бит/(Пиксели*Кадры) : 0.274
Размер потока : 5,71 Гбайт (78%)
Библиотека кодирования : x264 core 157 r2935 545de2f
Настройки программы : cabac=1 / ref=4 / deblock=1:-2:-2 / analyse=0x3:0x113 / me=umh / subme=11 / psy=1 / psy_rd=1.00:0.15 / mixed_ref=1 / me_range=32 / chroma_me=1 / trellis=2 / 8x8dct=1 / cqm=0 / deadzone=21,11 / fast_pskip=0 / chroma_qp_offset=-3 / threads=6 / lookahead_threads=1 / sliced_threads=0 / nr=0 / decimate=1 / interlaced=0 / bluray_compat=0 / constrained_intra=0 / bframes=8 / b_pyramid=2 / b_adapt=2 / b_bias=0 / direct=1 / weightb=1 / open_gop=0 / weightp=2 / keyint=230 / keyint_min=23 / scenecut=40 / intra_refresh=0 / rc_lookahead=40 / rc=crf / mbtree=1 / crf=16.5 / qcomp=0.60 / qpmin=0 / qpmax=69 / qpstep=4 / vbv_maxrate=50000 / vbv_bufsize=62500 / crf_max=0.0 / nal_hrd=none / filler=0 / ip_ratio=1.40 / aq=1:1.00
Язык : English
Default : Да
Forced : Нет

Аудио #1
Идентификатор : 2
Формат : DTS
Формат/Информация : Digital Theater Systems
Идентификатор кодека : A_DTS
Продолжительность : 1 ч. 17 м.
Вид битрейта : Постоянный
Битрейт : 1509 Кбит/сек
Каналы : 2 канала
ChannelLayout : L R
Частота : 48,0 КГц
Частота кадров : 93,750 кадра/сек (512 SPF)
Битовая глубина : 16 бит
Метод сжатия : С потерями
Размер потока : 841 Мбайт (11%)
Заголовок : Дмитрий Есарев
Язык : Russian
Default : Да
Forced : Нет

Аудио #2
Идентификатор : 3
Формат : DTS
Формат/Информация : Digital Theater Systems
Идентификатор кодека : A_DTS
Продолжительность : 1 ч. 17 м.
Вид битрейта : Постоянный
Битрейт : 1509 Кбит/сек
Каналы : 2 канала
ChannelLayout : L R
Частота : 48,0 КГц
Частота кадров : 93,750 кадра/сек (512 SPF)
Битовая глубина : 16 бит
Метод сжатия : С потерями
Размер потока : 841 Мбайт (11%)
Заголовок : original
Язык : English
Default : Нет
Forced : Нет

Текст
Идентификатор : 4
Формат : UTF-8
Идентификатор кодека : S_TEXT/UTF8
Идентификатор кодека/Информация : UTF-8 Plain Text
Продолжительность : 1 ч. 14 м.
Битрейт : 60 бит/сек
ElementCount : 854
Размер потока : 33,0 Кбайт (0%)
Заголовок : английские
Язык : Russian
Default : Нет
Forced : Нет

Меню
00:00:00.000 : en:Chapter 1
00:11:01.953 : en:Chapter 2
00:20:27.518 : en:Chapter 3
00:26:46.104 : en:Chapter 4
00:35:17.866 : en:Chapter 5
00:43:08.878 : en:Chapter 6
00:56:49.615 : en:Chapter 7
01:06:01.416 : en:Chapter 8
piratbit.pw



Скачать Хэнговер-сквер через торрент https://c.radikal.ru/c17/1905/00/c172f5fa9dc8.jpg Скачать фильм Хэнговер-сквер через торрент бесплантно в хорошем качестве О фильме: В начале XX века в Лондоне над своим концертом для фортепиано работал композитор Джордж Боун. Концерт давался ему нелегко. Причём ... 5 10 1
Info! Золотая раздача, скачанное не засчитывается.
Торрент: Зарегистрирован [2019-05-25 08:56] · скачан: 1 раз
Статус: √ проверено
Размер: 7.35 GB
Как cкачать? Как скачать Хэнговер-сквер через торрент | UTorrent

% Раздел Тема Автор DL S | L
Фильмы с авторской озвучкой [ 2.43 GB ] Хэнговер-сквер / Hangover Square [1945 BDRip 720p by msltel] AVO msltel Скачать
1 | 0

28-11-2019 20:33  

Отключить всю рекламу на сайте

    Дорогой пользователь! Огромная просьба, поблагодарите релизера, оцените раздачу и оставьте свои комментарий, если Вы скачали Хэнговер-сквер через торрент бесплатно! Внесите свою лепту в развитие PiratBit!
    Комментировать посты могут только пользователи прошедшие не сложную регистрацию
    Показать сообщения:    

    Хэнговер-сквер через торрент
    Скачать бесплатно Хэнговер-сквер
    Хэнговер-сквер скачать торрент
    Хэнговер-сквер смотреть онлайн
    Cкачать фильм Хэнговер-сквер бесплатно
    Хэнговер-сквер скачать торрент в хорошем качестве
    Хэнговер-сквер смотреть онлайн бесплатно в хорошем качестве


    Вы не можете начинать темы
    Вы не можете отвечать на сообщения
    Вы не можете редактировать свои сообщения
    Вы не можете удалять свои сообщения
    Вы не можете голосовать в опросах
    Вы не можете прикреплять файлы к сообщениям
    Вы можете скачивать файлы