Ссылка на приватное зеркало нашего сайта всего за 1$. Внимание количество ограничено!!!

2 сезон

iTunes

iTunes

1

iTunes

iTunes

iTunes

WEBRip

iTunes

30
pack

Новость дня

ВАЖНО

!!Акция!!

Alien_RageХит недели

RePack

Horizon Zero Dawn

ИГРА 18+

pack

RePack

jed

!!Акция!!

Alien_Rage

RePack

fifa19

RePack

Assassins Creed: Odyssey

RePack

NEED FOR SPEED™ PAYBACK

4 сезон

9 сезон

Бесстыжие 9 сезон

Все сериалы

все сериалы на PB.wtf

RePack

FAR CRY 5
  

Дар (Михаил Кукушкин) [2019, комедия, WEB-DL 1080p] [iTunes] piratbit.pw

Дар через торрент piratbit.pw

Размер: 3.64 GB | Добавлен: 6 мес. назад | Торрент скачан:96 раз
Скачать  

19-05-2019 05:42 Дар Скачать торрент  

Дар
Год выпуска: 2019
Страна: Россия
Жанр: комедия
Продолжительность: 01:34:50
Перевод: Не требуется | iTunes
Субтитры: отсутствуют

Режиссер: Михаил Кукушкин



В ролях: Алексей Колубков, Юрий Оборотов, Владимир Карпук, Валерия Дергилева, Светлана Бобкина, Евгений Зеленов, Ульяна Глушкова, Алёна Константинова, Виктория Пятакина

Описание: Толя Сидоров - простой рабочий предпенсионного возраста из российской глубинки - неожиданно открывает у себя талант художника и становится сенсацией в мире современного искусства. А все это из-за того, что создание «шедевров» происходит в очень интимный момент...

Слава о необычном художнике разлетается по Интернету, и на выставку уринальной живописи Анатолия приезжают ценители даже из Москвы. Как в русской сказке, на героя чудесным образом сваливается признание и деньги, но Толя предпочитает сохранять инкогнито, пытаясь понять, а творчество ли это. Да и мужики с завода засмеют, если узнают.

Качество: WEB-DL 1080p
Формат: MKV

Видео: H.264, 5120 Kb/s, 1920x1080, 24.000 FPS
Аудио Russian: 48 kHz, AC3, 6 ch, 384 Kb/s
скриншот  скриншот  скриншот  скриншот  

General
Unique ID: 238624831745993747553218791119449985781 (0xB385788C783E45C3A10C3374C7B792F5)
Complete name: Dar.2018.WEB-DL.1080p.ELEKTRI4KA.UNIONGANG.mkv
Format: Matroska
Format version: Version 4 / Version 2
File size: 3.64 GiB
Duration: 1 h 34 min
Overall bit rate: 5 496 kb/s
Movie name: ELEKTRI4KA.UNIONGANG
Encoded date: UTC 2020-03-02 16:21:02
Writing application: mkvmerge v8.3.0 ('Over the Horizon') 64bit
Writing library: libebml v1.3.1 + libmatroska v1.4.2

Video
ID: 1
Format: AVC
Format/Info: Advanced Video Codec
Format profile: High@L4
Format settings, CABAC: Yes
Format settings, ReFrames: 4 frames
Codec ID: V_MPEG4/ISO/AVC
Duration: 1 h 34 min
Bit rate: 5 120 kb/s
Width: 1 920 pixels
Height: 1 080 pixels
Display aspect ratio: 16:9
Frame rate mode: Constant
Frame rate: 24.000 FPS
Color space: YUV
Chroma subsampling: 4:2:0
Bit depth: 8 bits
Scan type: Progressive
Bits/(Pixel*Frame): 0.103
Stream size: 3.39 GiB (93%)
Writing library: x264 core 148
Encoding settings: cabac=1 / ref=3 / deblock=1:0:0 / analyse=0x3:0x113 / me=hex / subme=7 / psy=1 / psy_rd=1.00:0.00 / mixed_ref=1 / me_range=16 / chroma_me=1 / trellis=1 / 8x8dct=1 / cqm=0 / deadzone=21,11 / fast_pskip=1 / chroma_qp_offset=-2 / threads=34 / lookahead_threads=5 / sliced_threads=0 / nr=0 / decimate=1 / interlaced=0 / bluray_compat=0 / constrained_intra=0 / bframes=6 / b_pyramid=2 / b_adapt=1 / b_bias=0 / direct=1 / weightb=1 / open_gop=0 / weightp=2 / keyint=48 / keyint_min=25 / scenecut=0 / intra_refresh=0 / rc_lookahead=40 / rc=2pass / mbtree=1 / bitrate=5120 / ratetol=1.0 / qcomp=0.60 / qpmin=0 / qpmax=69 / qpstep=4 / cplxblur=20.0 / qblur=0.5 / vbv_maxrate=7680 / vbv_bufsize=20480 / nal_hrd=none / filler=0 / ip_ratio=1.40 / aq=1:1.00
Language: English
Default: Yes
Forced: No

Audio
ID: 2
Format: AC-3
Format/Info: Audio Coding 3
Mode extension: CM (complete main)
Format settings, Endianness: Big
Codec ID: A_AC3
Duration: 1 h 34 min
Bit rate mode: Constant
Bit rate: 384 kb/s
Channel(s): 6 channels
Channel positions: Front: L C R, Side: L R, LFE
Sampling rate: 48.0 kHz
Frame rate: 31.250 FPS (1536 spf)
Bit depth: 16 bits
Compression mode: Lossy
Stream size: 261 MiB (7%)
Title: iTunes
Language: Russian
Default: Yes
Forced: No

piratbit.pw



Скачать Дар через торрент https://a.radikal.ru/a22/2003/eb/98cc084652d9.png Скачать фильм Дар через торрент бесплантно в хорошем качестве Описание: Толя Сидоров - простой рабочий предпенсионного возраста из российской глубинки - неожиданно открывает у себя талант художника и ... 10 10 7
Торрент: Зарегистрирован [2020-03-02 17:42] · скачан: 96 раз
Статус: √ проверено
Размер: 3.64 GB
Как cкачать? Как скачать Дар через торрент | qTorrent

% Раздел Тема Автор DL S | L
Иностранные мультфильмы [ 1.37 GB ] Мулан 2 / Mulan II [2004 мультфильм DVDRip] Anonymous Скачать
3 | 0
Фильмы 2006-2008 [ 2.35 GB ] Мгла / Mist The [2007 ... BDRip ] stalone Скачать
2 | 0
Ходячие мертвецы (The Walking Dead) [ 2.46 GB ] Ходячие Мертвецы / The Walking Dead / Сезон: 1 / Серии: 1-6 [2010 HDTVRip] lyokaa Скачать
1 | 0
Кино СССР [ 2.05 GB ] Служебный роман / Sluzhebnyy roman [1977 DVDRip] Shmel Скачать
4 | 0
Кино СССР [ 2.05 GB ] Они сражались за Родину [1975 военный DVDRip] ДениС22 Скачать
1 | 0
Сборники на DVD и Сиквелы [DVDrip, WEB-DLRip, HDrip, BDRip] [ 13.08 GB ] Пила 123456 / Saw 123456 [2004-2009 BDRip] SD Скачать
1 | 0
Наши фильмы, до 2010 [ 1.37 GB ] Обитаемый остров: Схватка [2009 DVDRip] DEVI Скачать
1 | 0

28-11-2019 20:33  

Отключить всю рекламу на сайте

    Дорогой пользователь! Огромная просьба, поблагодарите релизера, оцените раздачу и оставьте свои комментарий, если Вы скачали Дар через торрент бесплатно! Внесите свою лепту в развитие PiratBit!
    Комментировать посты могут только пользователи прошедшие не сложную регистрацию
    Показать сообщения:    

    Дар через торрент
    Скачать бесплатно Дар
    Дар скачать торрент
    Дар смотреть онлайн
    Cкачать фильм Дар бесплатно
    Дар скачать торрент в хорошем качестве
    Дар смотреть онлайн бесплатно в хорошем качестве


    Вы не можете начинать темы
    Вы не можете отвечать на сообщения
    Вы не можете редактировать свои сообщения
    Вы не можете удалять свои сообщения
    Вы не можете голосовать в опросах
    Вы не можете прикреплять файлы к сообщениям
    Вы можете скачивать файлы