1 сезон

1 сезон

iTunes

1

КиноПоиск HD

Кинопоиск HD

iTunes

13

1 сезон

RePack

30

Ultimate

ВАЖНО

ИГРА 18+

pack

RePack

MK11
pack

Легкие деньги

RePack

jed

RePack

fifa19

RePack

RDR2

RePack

NEED FOR SPEED™ PAYBACK

4 сезон

9 сезон

Бесстыжие 9 сезон

Все сериалы

все сериалы на PB.wtf

RePack

FAR CRY 5
  
Magnet ссылка

Хэллоуин 4: Возвращение Майкла Майерса / Halloween 4: The Return of Michael Myers (Дуайт Х. Литтл) [1988 г., Ужасы, Триллер, BDRip 1080p, Авторский] piratbit.pw

Хэллоуин 4: Возвращение Майкла Майерса через торрент piratbit.pw

Размер: 10.75 GB | Добавлен: 1 год 11 мес. назад | Торрент скачан:1 раз
Скачать  

09-05-2019 17:27 Хэллоуин 4: Возвращение Майкла Майерса Скачать торрент  

Хэллоуин 4: Возвращение Майкла Майерса /
Halloween 4: The Return of Michael Myers
Год выпуска: 1988
Страна: США
Жанр: Ужасы, Триллер
Продолжительность: 01:28:17
Перевод: Авторский (одноголосый) В.Штейн
Субтитры: отсутствуют

Режиссер: Дуайт Х. Литтл

Премьера в мире: 21 октября 1988

rating

В ролях: Дональд Плезенс, Элли Корнелл, Даниэль Харрис, Джордж П. Вилбур, Майкл Патаки, Бо Старр, Кэтлин Кинмонт, Саша Дженсон, Джин Росс, Кармен Филпи

Описание: Черное одеяние, белая мертвенная маска, нечеловеческая сила — это Майкл Майерс! Самый неистребимый монстр всех времен и народов возвращается, совершив побег при транспортировке из одной психиатрической клиники в другую. В ночь кануна всех святых он снова объявляется в родном городе, истребляя всех на своем пути к главной жертве — маленькой племяннице Джеми…

Качество: BDRip 1080p
Формат: MKV
Видео кодек: H.264
Аудио кодек: AC3
Видео: AVC/H.264, 1920х1040 (1,85:1), ~17,0 Mbps, 0.355 bit/pixel
Аудио#1: Русский: AC3, 6 ch, 448 kbps - Одноголосый закадровый (В.Штейн)
Релиз от: winchester00100010
Общее
Уникальный идентификатор : 170990718839676716532048408334540137955 (0x80A39D53F8DE50E0A20C11472FBEE5E3)
Полное имя : E:\МОИ РАЗДАЧИ ФИЛЬМЫ И СЕРИАЛЫ\Halloween.4.1988.BDRip.1080p.mkv
Формат : Matroska
Версия формата : Version 2
Размер файла : 10,8 Гбайт
Продолжительность : 1 ч. 28 м.
Общий поток : 17,4 Мбит/сек
Дата кодирования : UTC 2019-05-05 12:41:49
Программа кодирования : mkvmerge v5.8.0 ('No Sleep / Pillow') built on Sep 2 2012 15:37:04
Библиотека кодирования : libebml v1.2.3 + libmatroska v1.3.0

Видео
Идентификатор : 1
Формат : AVC
Формат/Информация : Advanced Video Codec
Профиль формата : High@L4.1
Настройки формата : CABAC / 4 Ref Frames
Параметр CABAC формата : Да
Параметр RefFrames формата : 4 кадра
Идентификатор кодека : V_MPEG4/ISO/AVC
Продолжительность : 1 ч. 28 м.
Битрейт : 17,0 Мбит/сек
Ширина : 1920 пикселей
Высота : 1040 пикселей
Соотношение сторон : 1,85:1
Режим частоты кадров : Постоянный
Частота кадров : 23,976 (24000/1001) кадра/сек
Цветовое пространство : YUV
Субдискретизация насыщенности : 4:2:0
Битовая глубина : 8 бит
Тип развёртки : Прогрессивная
Бит/(Пиксели*Кадры) : 0.355
Размер потока : 10,3 Гбайт (95%)
Библиотека кодирования : x264 core 146 r2538 121396c
Настройки программы : cabac=1 / ref=4 / deblock=1:-3:-3 / analyse=0x3:0x113 / me=umh / subme=9 / psy=1 / psy_rd=1.00:0.15 / mixed_ref=1 / me_range=24 / chroma_me=1 / trellis=2 / 8x8dct=1 / cqm=0 / deadzone=21,11 / fast_pskip=0 / chroma_qp_offset=-3 / threads=12 / lookahead_threads=2 / sliced_threads=0 / nr=0 / decimate=0 / interlaced=0 / bluray_compat=0 / constrained_intra=0 / bframes=6 / b_pyramid=2 / b_adapt=2 / b_bias=0 / direct=3 / weightb=1 / open_gop=0 / weightp=2 / keyint=240 / keyint_min=23 / scenecut=40 / intra_refresh=0 / rc_lookahead=40 / rc=2pass / mbtree=0 / bitrate=16996 / ratetol=1.0 / qcomp=0.60 / qpmin=0 / qpmax=69 / qpstep=4 / cplxblur=20.0 / qblur=0.5 / vbv_maxrate=50000 / vbv_bufsize=62500 / nal_hrd=none / filler=0 / ip_ratio=1.40 / pb_ratio=1.30 / aq=1:0.80
Default : Да
Forced : Нет

Аудио
Идентификатор : 2
Формат : AC-3
Формат/Информация : Audio Coding 3
Коммерческое название : Dolby Digital
Идентификатор кодека : A_AC3
Продолжительность : 1 ч. 28 м.
Вид битрейта : Постоянный
Битрейт : 448 Кбит/сек
Каналы : 6 каналов
Channel layout : L R C LFE Ls Rs
Частота : 48,0 КГц
Частота кадров : 31,250 кадров/сек (1536 SPF)
Битовая глубина : 16 бит
Метод сжатия : С потерями
Размер потока : 283 Мбайт (3%)
Заголовок : Штейн
Язык : Russian
ServiceKind/String : Complete Main
Default : Да
Forced : Да

piratbit.pw



Скачать Хэллоуин 4: Возвращение Майкла Майерса через торрент https://pic1.kartinco.top/images/11/kli5q.jpg Скачать фильм Хэллоуин 4: Возвращение Майкла Майерса через торрент бесплантно в хорошем качестве Описание: Черное одеяние, белая мертвенная маска, нечеловеческая сила — это Майкл Майерс! Самый неистребимый монстр всех времен и народов ... 10 10 1
Info! Золотая раздача, скачанное не засчитывается.
Торрент: Зарегистрирован [2019-05-09 17:27] · скачан: 1 раз
Статус: √ проверено
Размер: 10.75 GB
Как cкачать? Как скачать Хэллоуин 4: Возвращение Майкла Майерса через торрент | UTorrent

% Раздел Тема Автор DL S | L
Фильмы с авторской озвучкой [ 1.86 GB ] Хэллоуин 4: Возвращение Майкла Майерса / Halloween 4: The Return of Michael Myers [1988 BDRip AVO + Original] winchester00100010 Скачать
1 | 0
Фильмы с авторской озвучкой [ 4.32 GB ] Хэллоуин 4: Возвращение Майкла Майерса / Halloween 4: The Return of Michael Myers [1988 BDRip 720p Авторский] winchester00100010 Скачать
1 | 0
Фильмы с авторской озвучкой [ 2.55 GB ] Хэллоуин 4: Возвращение Майкла Майерса / Halloween 4: The Return of Michael Myers [1988 BDRip-AVC Авторский] winchester00100010 Скачать
1 | 0

28-11-2019 20:33  

Отключить всю рекламу на сайте

09-05-2019 17:28 Хэллоуин 4: Возвращение Майкла Майерса Скачать торрент  

Всем приятного просмотра))piratbit.pw



    Дорогой пользователь! Огромная просьба, поблагодарите релизера, оцените раздачу и оставьте свои комментарий, если Вы скачали Хэллоуин 4: Возвращение Майкла Майерса через торрент бесплатно! Внесите свою лепту в развитие PiratBit!
    Комментировать посты могут только пользователи прошедшие не сложную регистрацию
    Показать сообщения:    

    Хэллоуин 4: Возвращение Майкла Майерса через торрент
    Скачать бесплатно Хэллоуин 4: Возвращение Майкла Майерса
    Хэллоуин 4: Возвращение Майкла Майерса скачать торрент
    Хэллоуин 4: Возвращение Майкла Майерса смотреть онлайн
    Cкачать фильм Хэллоуин 4: Возвращение Майкла Майерса бесплатно
    Хэллоуин 4: Возвращение Майкла Майерса скачать торрент в хорошем качестве
    Хэллоуин 4: Возвращение Майкла Майерса смотреть онлайн бесплатно в хорошем качестве


    Вы не можете начинать темы
    Вы не можете отвечать на сообщения
    Вы не можете редактировать свои сообщения
    Вы не можете удалять свои сообщения
    Вы не можете голосовать в опросах
    Вы не можете прикреплять файлы к сообщениям
    Вы можете скачивать файлы