1 сезон

1 сезон

iTunes

1

КиноПоиск HD

Кинопоиск HD

iTunes

13

1 сезон

RePack

30

Ultimate

ВАЖНО

ИГРА 18+

pack

RePack

MK11
pack

Легкие деньги

RePack

jed

RePack

fifa19

RePack

RDR2

RePack

NEED FOR SPEED™ PAYBACK

4 сезон

9 сезон

Бесстыжие 9 сезон

Все сериалы

все сериалы на PB.wtf

RePack

FAR CRY 5
  
Magnet ссылка

Детёныш / The Suckling (Фрэнсис Тери) [1990 г., ужасы, мистика, триллер, BDRip 720p] AVO (Александр Кашкин ) piratbit.pw

Детёныш через торрент piratbit.pw

Размер: 5.32 GB | Добавлен: 1 год 11 мес. назад | Торрент скачан:8 раз
Скачать  

08-05-2019 19:34 Детёныш Скачать торрент  

Детёныш / The Suckling Год выпуска: 1990

Страна: США

Жанр: Ужасы, мистика, триллер

Продолжительность: 01:29:17

Перевод: Авторский (одноголосый) - Александр Кашкин (Первомайский)

Субтитры: Английские

Режиссер: Фрэнсис Тери

rating

В ролях: Фрэнк Ривера, Мари Майклс, Джералд Прегер, Лиса Петруно, Джанет Совей, Тим Мартин Круз, Сьюзэн Бродский, Аллен Либ, Бобби Шапиро, Цезар Монрой, Майкл Гинголд

Описание: Сделав аборт, молодая женщина избавляется от своего будущего ребенка. В клинике человеческий зародыш выкидывают в канализацию, где он начинает развиваться. В публичном доме были жестоко растерзаны 12 человек. Единственная оставшаяся в живых свидетельница рассказала историю настолько невероятную и ужасную, что её приняли за сумасшедшую.
Качество: BDRip 720p
Формат: MKV
Видео кодек: MPEG-4 AVC
Аудио кодек: AC3
Видео: MPEG-4 AVC, 8100 Кбит/с, 1280x690
Аудио#1: Русский, AC3, 2 ch, 192 Кбит/с - AVO (Александр Кашкин)
Аудио#2: Английский, AC3, 2 ch, 224 Кбит/с
Видео
Идентификатор : 1
Формат : AVC
Формат/Информация : Advanced Video Codec
Профиль формата : High@L4.1
Настройки формата : CABAC / 9 Ref Frames
Параметр CABAC формата : Да
Параметр RefFrames формата : 9 кадров
Идентификатор кодека : V_MPEG4/ISO/AVC
Продолжительность : 1 ч. 29 м.
Битрейт : 8100 Кбит/сек
Ширина : 1280 пикселей
Высота : 690 пикселей
Соотношение сторон : 1,85:1
Режим частоты кадров : Постоянный
Частота кадров : 23,976 (24000/1001) кадра/сек
Цветовое пространство : YUV
Субдискретизация насыщенности : 4:2:0
Битовая глубина : 8 бит
Тип развёртки : Прогрессивная
Бит/(Пиксели*Кадры) : 0.383
Размер потока : 5,05 Гбайт (95%)
Заголовок : The.Suckling.1990.2KRestoration.BDRip.720p.x264-MM
Библиотека кодирования : x264 core 157 r2935 545de2f
Настройки программы : cabac=1 / ref=9 / deblock=1:-3:-3 / analyse=0x3:0x133 / me=umh / subme=11 / psy=1 / psy_rd=1.01:0.00 / mixed_ref=1 / me_range=48 / chroma_me=1 / trellis=2 / 8x8dct=1 / cqm=0 / deadzone=21,11 / fast_pskip=0 / chroma_qp_offset=-2 / threads=12 / lookahead_threads=3 / sliced_threads=0 / nr=0 / decimate=0 / interlaced=0 / bluray_compat=0 / constrained_intra=0 / bframes=12 / b_pyramid=2 / b_adapt=2 / b_bias=0 / direct=3 / weightb=1 / open_gop=1 / weightp=2 / keyint=250 / keyint_min=23 / scenecut=40 / intra_refresh=0 / rc_lookahead=60 / rc=2pass / mbtree=0 / bitrate=8100 / ratetol=1.0 / qcomp=0.60 / qpmin=0 / qpmax=69 / qpstep=4 / cplxblur=20.0 / qblur=0.5 / vbv_maxrate=50000 / vbv_bufsize=62500 / nal_hrd=none / filler=0 / ip_ratio=1.40 / pb_ratio=1.30 / aq=1:1.10
Язык : English
Default : Да
Forced : Нет

Аудио #1
Идентификатор : 2
Формат : AC-3
Формат/Информация : Audio Coding 3
Коммерческое название : Dolby Digital
Идентификатор кодека : A_AC3
Продолжительность : 1 ч. 29 м.
Вид битрейта : Постоянный
Битрейт : 192 Кбит/сек
Каналы : 2 канала
Channel layout : L R
Частота : 48,0 КГц
Частота кадров : 31,250 кадров/сек (1536 SPF)
Битовая глубина : 16 бит
Метод сжатия : С потерями
Размер потока : 123 Мбайт (2%)
Заголовок : AVO Александр Кашкин (Первомайский)
Язык : Russian
ServiceKind/String : Complete Main
Default : Да
Forced : Нет

Аудио #2
Идентификатор : 3
Формат : AC-3
Формат/Информация : Audio Coding 3
Коммерческое название : Dolby Digital
Идентификатор кодека : A_AC3
Продолжительность : 1 ч. 29 м.
Вид битрейта : Постоянный
Битрейт : 224 Кбит/сек
Каналы : 2 канала
Channel layout : L R
Частота : 48,0 КГц
Частота кадров : 31,250 кадров/сек (1536 SPF)
Битовая глубина : 16 бит
Метод сжатия : С потерями
Размер потока : 143 Мбайт (3%)
Заголовок : Original
Язык : English
ServiceKind/String : Complete Main
Default : Нет
Forced : Нет

Текст
Идентификатор : 4
Формат : PGS
Режим смешивания : zlib
Идентификатор кодека : S_HDMV/PGS
Идентификатор кодека/Информация : Picture based subtitle format used on BDs/HD-DVDs
Продолжительность : 1 ч. 29 м.
Битрейт : 27,3 Кбит/сек
ElementCount : 2430
Размер потока : 17,4 Мбайт (0%)
Язык : English
Default : Да
Forced : Нет

Меню
00:00:00.000 : en:Chapter 1
00:18:39.618 : en:Chapter 2
00:38:21.299 : en:Chapter 3
00:56:54.411 : en:Chapter 4
01:11:30.786 : en:Chapter 5

скриншот   скриншот   скриншот   скриншот  

piratbit.pw



Скачать Детёныш через торрент https://i3.imageban.ru/out/2019/05/08/7e9a773ea92b67b4b2b3d10d850c1061.gif Скачать фильм Детёныш через торрент бесплантно в хорошем качестве Описание: Сделав аборт, молодая женщина избавляется от своего будущего ребенка. В клинике человеческий зародыш выкидывают в канализацию, ... 10 10 1
Торрент: Зарегистрирован [2019-05-08 19:34] · скачан: 8 раз
Статус: √ проверено
Размер: 5.32 GB
Как cкачать? Как скачать Детёныш через торрент | UTorrent

28-11-2019 20:33  

Отключить всю рекламу на сайте

    Дорогой пользователь! Огромная просьба, поблагодарите релизера, оцените раздачу и оставьте свои комментарий, если Вы скачали Детёныш через торрент бесплатно! Внесите свою лепту в развитие PiratBit!
    Комментировать посты могут только пользователи прошедшие не сложную регистрацию
    Показать сообщения:    

    Детёныш через торрент
    Скачать бесплатно Детёныш
    Детёныш скачать торрент
    Детёныш смотреть онлайн
    Cкачать фильм Детёныш бесплатно
    Детёныш скачать торрент в хорошем качестве
    Детёныш смотреть онлайн бесплатно в хорошем качестве


    Вы не можете начинать темы
    Вы не можете отвечать на сообщения
    Вы не можете редактировать свои сообщения
    Вы не можете удалять свои сообщения
    Вы не можете голосовать в опросах
    Вы не можете прикреплять файлы к сообщениям
    Вы можете скачивать файлы