Ссылка на приватное зеркало нашего сайта всего за 1$. Внимание количество ограничено!!!

2 сезон

iTunes

iTunes

1

iTunes

iTunes

iTunes

WEBRip

iTunes

30
pack

Вам бонус

ВАЖНО

!!Акция!!

Alien_RageХит недели

RePack

Horizon Zero Dawn

ИГРА 18+

pack

RePack

jed

!!Акция!!

Alien_Rage

RePack

fifa19

RePack

Assassins Creed: Odyssey

RePack

NEED FOR SPEED™ PAYBACK

4 сезон

9 сезон

Бесстыжие 9 сезон

Все сериалы

все сериалы на PB.wtf

RePack

FAR CRY 5
  

Я, Ты, Он, Она / Я, Ти, Він, Вона (Владимир Зеленский, Дэвид Додсон) [2018, комедия, WEB-DL 1080p] piratbit.pw

Я, Ты, Он, Она через торрент piratbit.pw

Размер: 2.66 GB | Добавлен: 1 год 4 мес. назад | Торрент скачан:443 раза
Скачать  

02-05-2019 20:16 Я, Ты, Он, Она Скачать торрент  

Я, Ты, Он, Она / Я, Ти, Він, Вона Год выпуска: 2018
Страна: Украина
Жанр: комедия
Продолжительность: 01:30:48
Перевод: Не требуется
Субтитры: отсутствуют

Режиссер: Владимир Зеленский, Дэвид Додсон



В ролях:

Владимир Зеленский, Евгений Кошевой, Надежда Дорофеева, Анастасия Короткая, Мико Фаталов, Юрий Ткач, Ольга Сумская

Описание:

Максим и Яна прожили в браке 10 лет. Отношения превратились в союз, любовь — на уважение, а страсть — в обязанность. И когда на горизонте появляются соблазнительные перспективы… пара решает расстаться. Изменит ли ситуацию испытательный месяц, предоставленный судьей? А если они воплотят свои экстремальные мечты и самые смелые фантазии?

Качество: WEB-DL 1080p
Формат: MKV

Видео: H.264, 1912x800, 3921 кб/с, 25 fps
Аудио: АС3, 2.0, 192 кб/с
скриншот  скриншот  скриншот  

Общее
Уникальный идентификатор : 254750469718722375534882521806298289502 (0xBFA727E25D584D69B12808D67BEA155E)
Полное имя : D:\YA.Ty.On.Ona.WEB-DL.1080p.[RiperAM].mkv
Формат : Matroska
Версия формата : Version 2
Размер файла : 2,66 Гбайт
Продолжительность : 1 ч. 30 м.
Общий поток : 4197 Кбит/сек
Дата кодирования : UTC 2019-05-02 12:41:11
Программа кодирования : mkvmerge v5.2.0 ('I can't explain') built on Dec 18 2011 18:12:03
Библиотека кодирования : libebml v1.2.3 + libmatroska v1.3.0

Видео
Идентификатор : 1
Формат : AVC
Формат/Информация : Advanced Video Codec
Профиль формата : High@L4
Параметр CABAC формата : Да
Параметр RefFrames формата : 3 кадра
Идентификатор кодека : V_MPEG4/ISO/AVC
Продолжительность : 1 ч. 30 м.
Битрейт : 3921 Кбит/сек
Ширина : 1912 пикселей
Высота : 800 пикселей
Соотношение сторон : 2,40:1
Режим частоты кадров : Постоянный
Частота кадров : 25,000 кадров/сек
Цветовое пространство : YUV
Субдискретизация насыщенности : 4:2:0
Битовая глубина : 8 бит
Тип развёртки : Прогрессивная
Бит/(Пиксели*Кадры) : 0.103
Размер потока : 2,49 Гбайт (93%)
Default : Нет
Forced : Нет

Аудио
Идентификатор : 2
Формат : AC-3
Формат/Информация : Audio Coding 3
Расширение режима : CM (complete main)
Параметр Endianness формата : Big
Идентификатор кодека : A_AC3
Продолжительность : 1 ч. 30 м.
Вид битрейта : Постоянный
Битрейт : 192 Кбит/сек
Каналы : 2 канала
Расположение каналов : Front: L R
Частота : 48,0 КГц
Частота кадров : 31,250 кадров/сек (1536 spf)
Метод сжатия : С потерями
Задержка видео : -200 мс.
Размер потока : 125 Мбайт (5%)
Язык : Russian
Default : Да
Forced : Нет

piratbit.pw



Скачать Я, Ты, Он, Она через торрент https://i109.fastpic.ru/big/2019/0302/53/7198734c176fa0d33a48b299c2818e53.jpg Скачать фильм Я, Ты, Он, Она через торрент бесплантно в хорошем качестве Описание: Максим и Яна прожили в браке 10 лет. Отношения превратились в союз, любовь — на уважение, а страсть — в обязанность. И когда на ... 9.8 10 14
Торрент: Зарегистрирован [2019-05-02 20:16] · скачан: 443 раз
Статус: √ проверено
Размер: 2.66 GB
Как cкачать? Как скачать Я, Ты, Он, Она через торрент | qTorrent



Последний раз редактировалось: bober100 (2019-05-02 20:23), всего редактировалось 2 раз(а)

28-11-2019 20:33  

Отключить всю рекламу на сайте

02-05-2019 20:18 Я, Ты, Он, Она Скачать торрент  

чё там, президент в главной роли? piratbit.pw



03-05-2019 00:04 Я, Ты, Он, Она Скачать торрент  

Terran писал(а):

чё там, президент в главной роли?

так фильм 2018 года, это щас он в цирке, а тогда он еще актером кино был. piratbit.pw



03-05-2019 11:57 Я, Ты, Он, Она Скачать торрент  

Зелень проспонсировал, вот рекламы и нет...piratbit.pw



15-03-2020 19:19 Я, Ты, Он, Она Скачать торрент  

русский есть?piratbit.pw



    Дорогой пользователь! Огромная просьба, поблагодарите релизера, оцените раздачу и оставьте свои комментарий, если Вы скачали Я, Ты, Он, Она через торрент бесплатно! Внесите свою лепту в развитие PiratBit!
    Комментировать посты могут только пользователи прошедшие не сложную регистрацию
    Показать сообщения:    

    Я, Ты, Он, Она через торрент
    Скачать бесплатно Я, Ты, Он, Она
    Я, Ты, Он, Она скачать торрент
    Я, Ты, Он, Она смотреть онлайн
    Cкачать фильм Я, Ты, Он, Она бесплатно
    Я, Ты, Он, Она скачать торрент в хорошем качестве
    Я, Ты, Он, Она смотреть онлайн бесплатно в хорошем качестве


    Вы не можете начинать темы
    Вы не можете отвечать на сообщения
    Вы не можете редактировать свои сообщения
    Вы не можете удалять свои сообщения
    Вы не можете голосовать в опросах
    Вы не можете прикреплять файлы к сообщениям
    Вы можете скачивать файлы