1 сезон

1 сезон

iTunes

1

КиноПоиск HD

Кинопоиск HD

iTunes

13

1 сезон

RePack

30

Ultimate

ВАЖНО

ИГРА 18+

pack

RePack

MK11
pack

Легкие деньги

RePack

jed

RePack

fifa19

RePack

RDR2

RePack

NEED FOR SPEED™ PAYBACK

4 сезон

9 сезон

Бесстыжие 9 сезон

Все сериалы

все сериалы на PB.wtf

RePack

FAR CRY 5
  
Magnet ссылка

Побег из Собибора / Escape from Sobibor (Джек Голд) [1987, драма, военный, история, BDRip 720p by msltel] AVO piratbit.pw

Побег из Собибора через торрент piratbit.pw

Размер: 6.65 GB | Добавлен: 1 год 11 мес. назад | Торрент скачан:13 раз
Скачать  

30-04-2019 09:26 Побег из Собибора Скачать торрент  

Название: Побег из Собибора
Оригинальное название: Escape from Sobibor
Год выпуска: 1987
Страна: Великобритания, Югославия
Жанр: драма, военный, история
Продолжительность: 02:28:36
Перевод: авторский

Режиссер: Джек Голд
В ролях: Рутгер Хауэр, Джоанна Пакула, Алан Аркин, Нартмут Бэкер, Джек Шепхерд, Эмиль Уолк, Саймон Грегор, Линал Хафт, Джейсон Норман, Эли Нэтенсон, Курт Рааб, Хьюго Бауэр, Эрик П. Каспар, Клаус Грюнберг, Вольфганг Батке, Пэтти Лав, Джудит Шарп, Дэвид Миллер, Джек Чиссик, Питер Джонфилд

О фильме: В основу сюжета положена реальная история единственного удачного восстания в нацистском лагере смерти Собибор 14 октября 1943 года. Это экранизация документальной книги Ричарда Рашке с использованием документальных книг Томаса Блатта «Из пепла Собибора» и Станислава Шмайзнера «Ад в Собиборе».



Качество: BDRip 720p
Формат: MKV
Видео: MPEG-4 AVC, 6020 Kбит/с, 1280x720, 24 Кадр/с
Аудио 1: русский, AC3, 192 kbps, 2 ch, 48 kHz [авторский, Юрий Живов]
Аудио 2: английский, AC3, 192 kbps, 2 ch, 48 kHz [оригинал]
Субтитры: английские
Главы/чаптеры
Общее
Уникальный идентификатор : 243656497016961498187684508338586956976 (0xB74E88CCCBE72C269893D2498990B4B0)
Полное имя : D:\Video\Побег из Собибора.1987.BDRip 720p by msltel.mkv
Формат : Matroska
Версия формата : Version 4
Размер файла : 6,65 Гбайт
Продолжительность : 2 ч. 28 м.
Общий поток : 6407 Кбит/сек
Название фильма : Rip by msltel
Дата кодирования : UTC 2019-04-30 01:14:01
Программа кодирования : mkvmerge v8.2.0 ('World of Adventure') 64bit
Библиотека кодирования : libebml v1.3.1 + libmatroska v1.4.2

Видео
Идентификатор : 1
Формат : AVC
Формат/Информация : Advanced Video Codec
Профиль формата : High@L4.1
Настройки формата : CABAC / 9 Ref Frames
Параметр CABAC формата : Да
Параметр RefFrames формата : 9 кадров
Идентификатор кодека : V_MPEG4/ISO/AVC
Продолжительность : 2 ч. 28 м.
Битрейт : 6020 Кбит/сек
Ширина : 1280 пикселей
Высота : 720 пикселей
Соотношение сторон : 16:9
Режим частоты кадров : Постоянный
Частота кадров : 24,000 кадра/сек
Цветовое пространство : YUV
Субдискретизация насыщенности : 4:2:0
Битовая глубина : 8 бит
Тип развёртки : Прогрессивная
Бит/(Пиксели*Кадры) : 0.272
Размер потока : 6,25 Гбайт (94%)
Библиотека кодирования : x264 core 157 r2935 545de2f
Настройки программы : cabac=1 / ref=9 / deblock=1:-2:-2 / analyse=0x3:0x113 / me=umh / subme=11 / psy=1 / psy_rd=1.00:0.15 / mixed_ref=1 / me_range=32 / chroma_me=1 / trellis=2 / 8x8dct=1 / cqm=0 / deadzone=21,11 / fast_pskip=0 / chroma_qp_offset=-3 / threads=6 / lookahead_threads=1 / sliced_threads=0 / nr=0 / decimate=1 / interlaced=0 / bluray_compat=0 / constrained_intra=0 / bframes=7 / b_pyramid=2 / b_adapt=2 / b_bias=0 / direct=1 / weightb=1 / open_gop=0 / weightp=2 / keyint=230 / keyint_min=23 / scenecut=40 / intra_refresh=0 / rc_lookahead=40 / rc=crf / mbtree=1 / crf=19.5 / qcomp=0.60 / qpmin=0 / qpmax=69 / qpstep=4 / vbv_maxrate=50000 / vbv_bufsize=62500 / crf_max=0.0 / nal_hrd=none / filler=0 / ip_ratio=1.40 / aq=1:1.00
Язык : English
Default : Да
Forced : Нет

Аудио #1
Идентификатор : 2
Формат : AC-3
Формат/Информация : Audio Coding 3
Коммерческое название : Dolby Digital
Идентификатор кодека : A_AC3
Продолжительность : 2 ч. 28 м.
Вид битрейта : Постоянный
Битрейт : 192 Кбит/сек
Каналы : 2 канала
ChannelLayout : L R
Частота : 48,0 КГц
Частота кадров : 31,250 кадров/сек (1536 SPF)
Битовая глубина : 16 бит
Метод сжатия : С потерями
Размер потока : 204 Мбайт (3%)
Заголовок : Юрий Живов
Язык : Russian
ServiceKind/String : Complete Main
Default : Да
Forced : Нет

Аудио #2
Идентификатор : 3
Формат : AC-3
Формат/Информация : Audio Coding 3
Коммерческое название : Dolby Digital
Идентификатор кодека : A_AC3
Продолжительность : 2 ч. 28 м.
Вид битрейта : Постоянный
Битрейт : 192 Кбит/сек
Каналы : 2 канала
ChannelLayout : L R
Частота : 48,0 КГц
Частота кадров : 31,250 кадров/сек (1536 SPF)
Битовая глубина : 16 бит
Метод сжатия : С потерями
Размер потока : 204 Мбайт (3%)
Заголовок : original
Язык : English
ServiceKind/String : Complete Main
Default : Нет
Forced : Нет

Текст
Идентификатор : 4
Формат : UTF-8
Идентификатор кодека : S_TEXT/UTF8
Идентификатор кодека/Информация : UTF-8 Plain Text
Продолжительность : 2 ч. 26 м.
Битрейт : 44 бит/сек
ElementCount : 1657
Размер потока : 47,7 Кбайт (0%)
Заголовок : английские
Язык : English
Default : Нет
Forced : Нет

Меню
00:00:00.000 : :Глава 01
00:18:11.791 : :Глава 02
00:24:11.291 : :Глава 03
00:37:21.541 : :Глава 04
00:46:03.541 : :Глава 05
00:55:29.000 : :Глава 06
01:16:10.625 : :Глава 07
01:30:34.041 : :Глава 08
01:41:19.458 : :Глава 09
01:48:18.750 : :Глава 10
02:03:48.166 : :Глава 11
02:13:52.708 : :Глава 12
piratbit.pw



Скачать Побег из Собибора через торрент https://c.radikal.ru/c35/1904/75/1368f82ea90d.png Скачать фильм Побег из Собибора через торрент бесплантно в хорошем качестве О фильме: В основу сюжета положена реальная история единственного удачного восстания в нацистском лагере смерти Собибор 14 октября 1943 ... 5 10 1
Info! Золотая раздача, скачанное не засчитывается.
Торрент: Зарегистрирован [2019-04-30 09:26] · скачан: 13 раз
Статус: √ проверено
Размер: 6.65 GB
Как cкачать? Как скачать Побег из Собибора через торрент | UTorrent

% Раздел Тема Автор DL S | L
Фильмы с авторской озвучкой [ 17.74 GB ] Побег из Собибора / Escape from Sobibor [1987 военный история BDRip 1080p by msltel] AVO msltel Скачать
1 | 0
Фильмы до 2000 г. [ 1.47 GB ] Побег из Собибора / Escape from Sobibor [1987 военный история DVDRip] DVO AVO [Ю. Живов] gortomer Скачать
1 | 0

28-11-2019 20:33  

Отключить всю рекламу на сайте

    Дорогой пользователь! Огромная просьба, поблагодарите релизера, оцените раздачу и оставьте свои комментарий, если Вы скачали Побег из Собибора через торрент бесплатно! Внесите свою лепту в развитие PiratBit!
    Комментировать посты могут только пользователи прошедшие не сложную регистрацию
    Показать сообщения:    

    Побег из Собибора через торрент
    Скачать бесплатно Побег из Собибора
    Побег из Собибора скачать торрент
    Побег из Собибора смотреть онлайн
    Cкачать фильм Побег из Собибора бесплатно
    Побег из Собибора скачать торрент в хорошем качестве
    Побег из Собибора смотреть онлайн бесплатно в хорошем качестве


    Вы не можете начинать темы
    Вы не можете отвечать на сообщения
    Вы не можете редактировать свои сообщения
    Вы не можете удалять свои сообщения
    Вы не можете голосовать в опросах
    Вы не можете прикреплять файлы к сообщениям
    Вы можете скачивать файлы