Marvel's Avengers Deluxe Edition (супер цена) 159р. Внимание количество ограничено!!!

2 сезон

iTunes

iTunes

1

iTunes

iTunes

iTunes

WEBRip

iTunes

30
pack

Новость дня

ВАЖНО

!!Акция!!

Alien_RageХит недели

RePack

Horizon Zero Dawn

ИГРА 18+

pack

RePack

jed

!!Акция!!

Alien_Rage

RePack

fifa19

RePack

Assassins Creed: Odyssey

RePack

NEED FOR SPEED™ PAYBACK

4 сезон

9 сезон

Бесстыжие 9 сезон

Все сериалы

все сериалы на PB.wtf

RePack

FAR CRY 5
  

Юморист (Михаил Идов) [2019, драма, биография, WEB-DL 1080p] [iTunes] piratbit.pw

Юморист через торрент piratbit.pw

Размер: 3.9 GB | Добавлен: 1 год 4 мес. назад | Торрент скачан:294 раза
Скачать  

28-04-2019 11:06 Юморист Скачать торрент  

Юморист Год выпуска: 2019
Страна: Россия, Латвия, Чехи
Жанр: драма, биография
Продолжительность: 01:42:00
Перевод: Не требуется | iTunes
Субтитры: отсутствуют

Режиссер: Михаил Идов

rating

В ролях:

Алексей Агранович, Юрий Колокольников, Яна Сексте, Вильма Кутавичюте, Семён Штейнберг, Алиса Хазанова, Павел Ильин, Полина Ауг, Юлия Ауг, Ольга Дибцева, Анатолий Котенёв

Описание:

Главный герой фильма – успешный юморист Борис Аркадьев. На дворе 1984 год. Страна стоит на пороге перестройки. Герою не на что жаловаться. У него прекрасная семья, его обожают миллионы, а главное он на хорошем счету у людей из власти. Однако Аркадьеву не хватает свободы, как внешней, так и внутренней. Долгие годы ему приходится мириться с окружающим его миром и не говорить то о чем он действительно думает. В итоге вскоре герой из самого смешного человека страны превращается в самого опасного.

Качество: WEB-DL 1080p
Формат: MKV

Видео: MPEG-4 AVC, H264, 2.40:1, 1920x808, 24 fps, 5093 kbps
Аудио: Russian: AC3, 6 ch, 384 kbps, 16 bits, 48.0 KHz - iTunes
скриншот  скриншот  скриншот  скриншот  

скриншот  скриншот  скриншот  скриншот  

General
Unique ID : 215622768587426487731961069378362789333 (0xA2376F46A04F2D0D92F8447D54BDCDD5)
Complete name : D:Yumorist.2018.WEB-DL.(1080p).Getty.mkv
Format : Matroska
Format version : Version 4 / Version 2
File size : 3.90 GiB
Duration : 1 h 42 min
Overall bit rate : 5 479 kb/s
Movie name : Yumorist.2018.WEB-DL.(1080p).Getty
Encoded date : UTC 2019-03-24 22:46:43
Writing application : mkvmerge v7.8.0 ('River Man') 32bit built on Mar 27 2015 16:18:02
Writing library : libebml v1.3.1 + libmatroska v1.4.2

Video
ID : 1
Format : AVC
Format/Info : Advanced Video Codec
Format profile : High@L4
Format settings : CABAC / 4 Ref Frames
Format settings, CABAC : Yes
Format settings, ReFrames : 4 frames
Format settings, GOP : M=7, N=48
Codec ID : V_MPEG4/ISO/AVC
Duration : 1 h 42 min
Bit rate : 5 093 kb/s
Width : 1 920 pixels
Height : 808 pixels
Display aspect ratio : 2.40:1
Frame rate mode : Constant
Frame rate : 24.000 FPS
Color space : YUV
Chroma subsampling : 4:2:0
Bit depth : 8 bits
Scan type : Progressive
Bits/(Pixel*Frame) : 0.137
Stream size : 3.63 GiB (93%)
Default : Yes
Forced : No

Audio
ID : 2
Format : AC-3
Format/Info : Audio Coding 3
Codec ID : A_AC3
Duration : 1 h 42 min
Bit rate mode : Constant
Bit rate : 384 kb/s
Channel(s) : 6 channels
Channel positions : Front: L C R, Side: L R, LFE
Sampling rate : 48.0 kHz
Frame rate : 31.250 FPS (1536 SPF)
Bit depth : 16 bits
Compression mode : Lossy
Stream size : 280 MiB (7%)
Service kind : Complete Main
Default : Yes
Forced : No

piratbit.pw



Скачать Юморист через торрент https://b.radikal.ru/b13/1903/72/faa66de04bbd.png Скачать фильм Юморист через торрент бесплантно в хорошем качестве Описание: Главный герой фильма – успешный юморист Борис Аркадьев. На дворе 1984 год. Страна стоит на пороге перестройки. Герою не на что ... 10 10 9
Info! Золотая раздача, скачанное не засчитывается.
Торрент: Зарегистрирован [2019-04-28 11:06] · скачан: 294 раз
Статус: √ проверено
Размер: 3.9 GB
Как cкачать? Как скачать Юморист через торрент | qTorrent

% Раздел Тема Автор DL S | L
TNT serials [ 482 MB ] Наша Russia - Александр Родионович Бородач [2011 Юмористическое шоу SATRip Пиратка] Alex010484 Скачать
1 | 0
Comedy Club - Комеди Клаб new [ 639 MB ] Stand Up [2013 Юмористическое шоу WEB-DLRip Оригинал] кэп Скачать
1 | 0
Музыка других жанров [ 250 MB ] Нуждики [Юмористическое шоу радиостанции maximum] MP3 MrKuzj Скачать
1 | 0
TNT serials [ 6.58 GB ] Однажды в России / сезон 4 / 11 серий из ??? [2016 Юмористическое тв-шоу WEB-DLRip] bober100 Скачать
1 | 0
Вечерний Квартал [ 1.15 GB ] Вечерний квартал [92] - В Юрмале Часть 2 [17.10.2016 Юмористическое шоу концерт SATRip] Ворон Скачать
1 | 0
TNT serials [ 301 MB ] Наша Russia / Жорик Вартанов [2009 Юмористическое шоу SATRip] Имран Скачать
1 | 0
Вечерний Квартал [ 1.21 GB ] Вечерний квартал [91] - В Юрмале Часть 1 [10.10.2016 Юмористическое шоу концерт SATRip] Ворон Скачать
2 | 0

28-11-2019 20:33  

Отключить всю рекламу на сайте

    Дорогой пользователь! Огромная просьба, поблагодарите релизера, оцените раздачу и оставьте свои комментарий, если Вы скачали Юморист через торрент бесплатно! Внесите свою лепту в развитие PiratBit!
    Комментировать посты могут только пользователи прошедшие не сложную регистрацию
    Показать сообщения:    

    Юморист через торрент
    Скачать бесплатно Юморист
    Юморист скачать торрент
    Юморист смотреть онлайн
    Cкачать фильм Юморист бесплатно
    Юморист скачать торрент в хорошем качестве
    Юморист смотреть онлайн бесплатно в хорошем качестве


    Вы не можете начинать темы
    Вы не можете отвечать на сообщения
    Вы не можете редактировать свои сообщения
    Вы не можете удалять свои сообщения
    Вы не можете голосовать в опросах
    Вы не можете прикреплять файлы к сообщениям
    Вы можете скачивать файлы