1 сезон

1 сезон

iTunes

1

КиноПоиск HD

Кинопоиск HD

iTunes

13

1 сезон

RePack

30

Новинка

ВАЖНО

ИГРА 18+

pack

RePack

MK11
pack

Легкие деньги

RePack

jed

RePack

fifa19

RePack

RDR2

RePack

NEED FOR SPEED™ PAYBACK

4 сезон

9 сезон

Бесстыжие 9 сезон

Все сериалы

все сериалы на PB.wtf

RePack

FAR CRY 5
  
Magnet ссылка

Маньяк / Maniac (Уильям Ластиг) [1980 г., ужасы, триллер, драма, BDRip 1080p] AVO (Штейн) piratbit.pw

Маньяк через торрент piratbit.pw

Размер: 8.24 GB | Добавлен: 1 год 11 мес. назад | Торрент скачан:6 раз
Скачать  

27-04-2019 18:56 Маньяк Скачать торрент  

Маньяк / Maniac
Год выпуска: 1980

Страна: США

Жанр: Ужасы, триллер, драма

Продолжительность: 01:28:08

Перевод: Авторский (одноголосый) - Штейн

Субтитры: Русские, английские

Режиссер: Уильям Ластиг

rating

В ролях: Джо Спинелл, Кэролайн Манро, Эбигэйл Клэйтон, Келли Пайпер, Рита Монтон, Том Савини, Хыла Мэрроу, Джеймс Брюстер, Линда Ли Уолте, Трейси Эванс, Шэрон Митчелл, Кэрол Генри, Денис Спаньоло, Билли Спаньоло, Фрэнк Пеше, Кендес Клементс, Дайан Спаньоло, Ким Хадсон, Терри Ганьон

О фильме: Предельно натуралистичное бытописание будней обычного американского маньяка. Монстр в человеческом обличье выслеживает женщин, жестоко их убивает, скальпирует, а «трофеи» прибивает к головам манекенов, коими изобилует его логовище. Зрелище для людей с крепкими нервами и желудками - грим Тома Савини безупречен и пугающ до отвращения. Ужас «Маньяка» таится именно в обыденности происходящего.
Доп. информация: Звуковая дорожка с переводом исправлена...
Синхронизирована, убраны куски с обрывками фраз переводчика, так же заменены старые вставки оригинальной звук. дорожки.
На 3 минуты без перевода добавлены форсированные субтитры с Blu-ray диска, добавлены субтитры на надписи.
Качество: BDRip 1080p
Формат: MKV
Видео кодек: MPEG-4 AVC
Аудио кодек: AC3, DTS
Видео: MPEG-4 AVC, 11800 Кбит/с, 1920x1036, 23.976 Кадр/с
Аудио#1: Русский, AC3, 2 ch, 192 Кбит/с -AVO
Аудио#2: Английский, DTS, 6 ch, 960 Кбит/с
Аудио#3: Английский, AC3, 2 ch, 224 Кбит/с
Аудио#4: Английский, AC3, 2 ch, 224 Кбит/с
Видео
Идентификатор : 1
Формат : AVC
Формат/Информация : Advanced Video Codec
Профиль формата : High@L4.1
Настройки формата : CABAC / 4 Ref Frames
Параметр CABAC формата : Да
Параметр RefFrames формата : 4 кадра
Идентификатор кодека : V_MPEG4/ISO/AVC
Продолжительность : 1 ч. 28 м.
Битрейт : 11,8 Мбит/сек
Ширина : 1920 пикселей
Высота : 1036 пикселей
Соотношение сторон : 1,85:1
Режим частоты кадров : Постоянный
Частота кадров : 23,976 (24000/1001) кадра/сек
Цветовое пространство : YUV
Субдискретизация насыщенности : 4:2:0
Битовая глубина : 8 бит
Тип развёртки : Прогрессивная
Бит/(Пиксели*Кадры) : 0.247
Размер потока : 7,09 Гбайт (86%)
Заголовок : Sergei7721
Библиотека кодирования : x264 core 157 r2969 d4099dd
Настройки программы : cabac=1 / ref=4 / deblock=1:-1:-1 / analyse=0x3:0x113 / me=umh / subme=11 / psy=1 / psy_rd=1.00:0.20 / mixed_ref=1 / me_range=24 / chroma_me=1 / trellis=2 / 8x8dct=1 / cqm=0 / deadzone=21,11 / fast_pskip=0 / chroma_qp_offset=-3 / threads=24 / lookahead_threads=2 / sliced_threads=0 / nr=0 / decimate=0 / interlaced=0 / bluray_compat=0 / constrained_intra=0 / bframes=6 / b_pyramid=2 / b_adapt=2 / b_bias=0 / direct=3 / weightb=1 / open_gop=0 / weightp=2 / keyint=240 / keyint_min=23 / scenecut=40 / intra_refresh=0 / rc_lookahead=40 / rc=2pass / mbtree=0 / bitrate=11789 / ratetol=1.0 / qcomp=0.60 / qpmin=0 / qpmax=69 / qpstep=4 / cplxblur=20.0 / qblur=0.5 / vbv_maxrate=50000 / vbv_bufsize=62500 / nal_hrd=none / filler=0 / ip_ratio=1.40 / pb_ratio=1.30 / aq=1:1.00
Default : Да
Forced : Нет

Аудио #1
Идентификатор : 2
Формат : AC-3
Формат/Информация : Audio Coding 3
Коммерческое название : Dolby Digital
Идентификатор кодека : A_AC3
Продолжительность : 1 ч. 28 м.
Вид битрейта : Постоянный
Битрейт : 192 Кбит/сек
Каналы : 2 канала
Channel layout : L R
Частота : 48,0 КГц
Частота кадров : 31,250 кадров/сек (1536 SPF)
Битовая глубина : 16 бит
Метод сжатия : С потерями
Размер потока : 121 Мбайт (1%)
Язык : Russian
ServiceKind/String : Complete Main
Default : Да
Forced : Нет

Аудио #2
Идентификатор : 3
Формат : DTS
Формат/Информация : Digital Theater Systems
Идентификатор кодека : A_DTS
Продолжительность : 1 ч. 28 м.
Вид битрейта : Постоянный
Битрейт : 960 Кбит/сек
Каналы : 6 каналов
Channel layout : C L R Ls Rs LFE
Частота : 48,0 КГц
Частота кадров : 93,750 кадра/сек (512 SPF)
Битовая глубина : 16 бит
Метод сжатия : С потерями
Размер потока : 606 Мбайт (7%)
Язык : English
Default : Нет
Forced : Нет

Аудио #3
Идентификатор : 4
Формат : AC-3
Формат/Информация : Audio Coding 3
Коммерческое название : Dolby Digital
Идентификатор кодека : A_AC3
Продолжительность : 1 ч. 28 м.
Вид битрейта : Постоянный
Битрейт : 224 Кбит/сек
Каналы : 2 канала
Channel layout : L R
Частота : 48,0 КГц
Частота кадров : 31,250 кадров/сек (1536 SPF)
Битовая глубина : 16 бит
Метод сжатия : С потерями
Размер потока : 141 Мбайт (2%)
Язык : English
ServiceKind/String : Complete Main
Default : Нет
Forced : Нет

Аудио #4
Идентификатор : 5
Формат : AC-3
Формат/Информация : Audio Coding 3
Коммерческое название : Dolby Digital
Идентификатор кодека : A_AC3
Продолжительность : 1 ч. 28 м.
Вид битрейта : Постоянный
Битрейт : 224 Кбит/сек
Каналы : 2 канала
Channel layout : L R
Частота : 48,0 КГц
Частота кадров : 31,250 кадров/сек (1536 SPF)
Битовая глубина : 16 бит
Метод сжатия : С потерями
Размер потока : 141 Мбайт (2%)
Язык : English
ServiceKind/String : Complete Main
Default : Нет
Forced : Нет

Текст #1
Идентификатор : 6
Формат : UTF-8
Идентификатор кодека : S_TEXT/UTF8
Идентификатор кодека/Информация : UTF-8 Plain Text
Язык : Russian
Default : Да
Forced : Нет

Текст #2
Идентификатор : 7
Формат : UTF-8
Идентификатор кодека : S_TEXT/UTF8
Идентификатор кодека/Информация : UTF-8 Plain Text
Язык : Russian
Default : Нет
Forced : Нет

Текст #3
Идентификатор : 8
Формат : UTF-8
Идентификатор кодека : S_TEXT/UTF8
Идентификатор кодека/Информация : UTF-8 Plain Text
Язык : English
Default : Нет
Forced : Нет

Меню
00:00:00.000 : en:00:00:00.000
00:02:37.365 : en:00:02:37.365
00:06:05.990 : en:00:06:05.990
00:09:00.790 : en:00:09:00.790
00:16:39.873 : en:00:16:39.873
00:21:12.688 : en:00:21:12.688
00:24:02.774 : en:00:24:02.774
00:30:40.213 : en:00:30:40.213
00:35:47.687 : en:00:35:47.687
00:42:17.326 : en:00:42:17.326
00:48:56.183 : en:00:48:56.183
00:54:47.242 : en:00:54:47.242
00:58:25.126 : en:00:58:25.126
01:04:34.829 : en:01:04:34.829
01:12:38.395 : en:01:12:38.395
01:19:14.583 : en:01:19:14.583
01:23:22.831 : en:01:23:22.831
01:25:40.343 : en:01:25:40.343
01:27:58.273 : en:01:27:58.273

скриншот   скриншот   скриншот   скриншот   скриншот  

piratbit.pw



Скачать Маньяк через торрент https://i3.imageban.ru/out/2019/04/27/fd5243adb6055a597067fa1541c52fac.gif Скачать фильм Маньяк через торрент бесплантно в хорошем качестве О фильме: Предельно натуралистичное бытописание будней обычного американского маньяка. Монстр в человеческом обличье выслеживает женщин, ... 10 10 1
Торрент: Зарегистрирован [2019-04-27 18:56] · скачан: 6 раз
Статус: √ проверено
Размер: 8.24 GB
Как cкачать? Как скачать Маньяк через торрент | UTorrent

% Раздел Тема Автор DL S | L
Ultra HD (UHD: 2K, 4K, 8K) — видео сверхвысокой чёткости [ 56.35 GB ] Маньяк / Maniac [1980 UHD BDRemux 2160p ] AVO [В.Штейн] bober100 Скачать
1 | 0
Зарубежные сериалы [ 7.86 GB ] Маньяк / Maniac / Сезон: 1 / Серии: 1-10 из 10 [2018 WEB-DLRip] [MVO] killermax2013 Скачать
1 | 0
Сборники и Сиквелы (48-60 fps) [ 9.55 GB ] Маньяк-полицейский 1 2 3 / Maniac Cop 1 2 3 [1988-1993 BDRip 720p / 60fps AVO] от R.G. HD-Films) slaventi-69 Скачать
1 | 0
Гонзо [ 2.38 GB ] Manuel Is A MILF-O-Maniac 6 / Мануэль - Маньяк Мамочек 6 [2019 Anal Big Boobs Big Cocks Gonzo Mature MILF WEB-DL] Venom Скачать
1 | 0
Фильмы с авторской озвучкой [ 9.18 GB ] Маньяк-полицейский / Maniac Cop [1988 BDRip-HEVC 1080p ] AVO [А. Михалев] bober100 Скачать
1 | 0
Зарубежные сериалы [ 5.32 GB ] Помешанный / Маньяк / Maniac / Сезон: 1 / Серии: 1-10 из 10 [2014 WEBRip 720p] MVO [Good People] bober100 Скачать
1 | 0
Зарубежные сериалы [ 2.45 GB ] Маньяк / Помешанный / Maniac / Сезон: 1 / Серии: 1-10 из 10 [2014 WEB-DLRip] MVO [Good People] bober100 Скачать
1 | 0

28-11-2019 20:33  

Отключить всю рекламу на сайте

    Дорогой пользователь! Огромная просьба, поблагодарите релизера, оцените раздачу и оставьте свои комментарий, если Вы скачали Маньяк через торрент бесплатно! Внесите свою лепту в развитие PiratBit!
    Комментировать посты могут только пользователи прошедшие не сложную регистрацию
    Показать сообщения:    

    Маньяк через торрент
    Скачать бесплатно Маньяк
    Маньяк скачать торрент
    Маньяк смотреть онлайн
    Cкачать фильм Маньяк бесплатно
    Маньяк скачать торрент в хорошем качестве
    Маньяк смотреть онлайн бесплатно в хорошем качестве


    Вы не можете начинать темы
    Вы не можете отвечать на сообщения
    Вы не можете редактировать свои сообщения
    Вы не можете удалять свои сообщения
    Вы не можете голосовать в опросах
    Вы не можете прикреплять файлы к сообщениям
    Вы можете скачивать файлы