Marvel's Avengers Deluxe Edition (супер цена) 159р. Внимание количество ограничено!!!

2 сезон

iTunes

iTunes

1

iTunes

iTunes

iTunes

WEBRip

iTunes

30
pack

Новость дня

ВАЖНО

!!Акция!!

Alien_RageХит недели

RePack

Horizon Zero Dawn

ИГРА 18+

pack

RePack

jed

!!Акция!!

Alien_Rage

RePack

fifa19

RePack

Assassins Creed: Odyssey

RePack

NEED FOR SPEED™ PAYBACK

4 сезон

9 сезон

Бесстыжие 9 сезон

Все сериалы

все сериалы на PB.wtf

RePack

FAR CRY 5
  

Папа, сдохни (Кирилл Соколов) [2019, комедия, WEB-DL 720p] [iTunes] piratbit.pw

Папа, сдохни через торрент piratbit.pw

Размер: 2.9 GB | Добавлен: 1 год 4 мес. назад | Торрент скачан:223 раза
Скачать  

26-04-2019 19:50 Папа, сдохни Скачать торрент  

Папа, сдохни Год выпуска: 2019
Страна: Россия
Жанр: комедия
Продолжительность: 01:34:14
Перевод: Не требуется | iTunes
Субтитры: отсутствуют

Режиссер: Кирилл Соколов

rating

В ролях:

Виталий Хаев, Александр Кузнецов, Евгения Крегжде, Михаил Горевой, Елена Шевченко, Игорь Грабузов, Александр Домогаров мл., Владимир Афанасьев, Владимир Кондауров, Артём Башенин

Описание:

Самый гнусный отец в мире, опер Андрей Геннадьевич, собирает у себя в квартире компанию отъявленных мерзавцев: мстительную дочь-актрису, озлобленного хулигана и обманутого мента. У каждого из них есть свои причины для мести.

Качество: WEB-DL 720p
Формат: MKV

Видео: MPEG-4 AVC, 3932 Кбит/с, 1280x960@536
Аудио Russian: AC3, 6 ch, 384 Kb/s
скриншот  скриншот  скриншот  

Общее
Уникальный идентификатор : 240156683699347884648726987774009652952 (0xB4AC7EAE5DFA4CB39D9E93034285B6D8)
Полное имя : D:\Dad.die.2019.WEB-DL.720p.ELEKTRI4KA.UNIONGANG.mkv
Формат : Matroska
Версия формата : Version 2
Размер файла : 2,90 Гбайт
Продолжительность : 1 ч. 34 м.
Общий поток : 4403 Кбит/сек
Название фильма : Dad.die.2019.ELEKTRI4KA.UNIONGANG.mkv
Дата кодирования : UTC 2019-04-25 18:15:54
Программа кодирования : mkvmerge v7.8.0 ('River Man') 32bit built on Apr 3 2015 12:11:22
Библиотека кодирования : libebml v1.3.1 + libmatroska v1.4.2

Видео
Идентификатор : 2
Формат : AVC
Формат/Информация : Advanced Video Codec
Профиль формата : Main@L3.1
Параметр CABAC формата : Нет
Параметр RefFrames формата : 2 кадра
Идентификатор кодека : V_MPEG4/ISO/AVC
Продолжительность : 1 ч. 34 м.
Битрейт : 3932 Кбит/сек
Ширина : 960 пикселей
Высота : 536 пикселей
Соотношение сторон : 2,40:1
Режим частоты кадров : Постоянный
Частота кадров : 25,000 кадров/сек
Цветовое пространство : YUV
Субдискретизация насыщенности : 4:2:0
Битовая глубина : 8 бит
Тип развёртки : Прогрессивная
Бит/(Пиксели*Кадры) : 0.306
Размер потока : 2,59 Гбайт (89%)
Язык : English
Default : Да
Forced : Нет
Цветовой диапазон : Limited
Основные цвета : BT.709
Характеристики трансфера : BT.709
Коэффициенты матрицы : BT.709

Аудио
Идентификатор : 1
Формат : AC-3
Формат/Информация : Audio Coding 3
Расширение режима : CM (complete main)
Параметр Endianness формата : Big
Идентификатор кодека : A_AC3
Продолжительность : 1 ч. 34 м.
Вид битрейта : Постоянный
Битрейт : 384 Кбит/сек
Каналы : 6 каналов
Расположение каналов : Front: L C R, Side: L R, LFE
Частота : 48,0 КГц
Частота кадров : 31,250 кадров/сек (1536 spf)
Метод сжатия : С потерями
Размер потока : 259 Мбайт (9%)
Заголовок : itunes.ELEKTRI4KA.UNIONGANG
Язык : Russian
Default : Да
Forced : Нет

Меню
00:00:00.000 : en:Глава 1
00:12:27.440 : en:Глава 2
00:16:55.960 : en:Глава 3
00:23:46.680 : en:Глава 4
00:29:55.519 : en:Глава 5
00:38:35.118 : en:Глава 6
00:49:26.078 : en:Глава 7
00:55:22.637 : en:Глава 8
01:03:58.917 : en:Глава 9
01:09:45.036 : en:Глава 10
01:18:30.435 : en:Глава 11
01:29:01.155 : en:Глава 12

piratbit.pw



Скачать Папа, сдохни через торрент https://i4.imageban.ru/out/2019/04/25/a228f16c4c9e952f1a11f1c16bf56173.png Скачать фильм Папа, сдохни через торрент бесплантно в хорошем качестве Описание: Самый гнусный отец в мире, опер Андрей Геннадьевич, собирает у себя в квартире компанию отъявленных мерзавцев: мстительную ... 8.4 10 11
Торрент: Зарегистрирован [2019-04-26 19:50] · скачан: 223 раз
Статус: √ проверено
Размер: 2.9 GB
Как cкачать? Как скачать Папа, сдохни через торрент | qTorrent

% Раздел Тема Автор DL S | L
Наши фильмы (Blu-ray, BD-Remux, HDDVD) [ 19.84 GB ] Папа сдохни [2019 Blu-ray 1080p] [GER Transfer / ] bober100 Скачать
1 | 0
Наши новые фильмы 2018-2019 [ 1.46 GB ] Папа сдохни [2019 BDRip] [Русский] [] Twi7ter Скачать
15 | 0
Наши фильмы (HD, WEB-DL 720p, 1080p) [ 7.45 GB ] Папа сдохни [2019 BDRip 1080p] [GER Transfer / BD GER] bober100 Скачать
3 | 0
Наши новые фильмы 2018-2019 [ 744 MB ] Папа сдохни [2019 BDRip] [GER Transfer / BD GER] bober100 Скачать
1 | 0
Наши новые фильмы 2018-2019 [ 1.46 GB ] Папа сдохни [2019 BDRip-AVC] [GER Transfer / Blu-ray GER] bober100 Скачать
1 | 0
Наши фильмы (Blu-ray, BD-Remux, HDDVD) [ 10.32 GB ] Папа сдохни [2019 BD Remux 1080p] [GER Transfer / Blu-ray GER] bober100 Скачать
1 | 0
Наши новые фильмы 2018-2019 [ 1.46 GB ] Папа сдохни [2019 BDRip] [GER Transfer / BD GER] bober100 Скачать
1 | 0

28-11-2019 20:33  

Отключить всю рекламу на сайте

    Дорогой пользователь! Огромная просьба, поблагодарите релизера, оцените раздачу и оставьте свои комментарий, если Вы скачали Папа, сдохни через торрент бесплатно! Внесите свою лепту в развитие PiratBit!
    Комментировать посты могут только пользователи прошедшие не сложную регистрацию
    Показать сообщения:    

    Папа, сдохни через торрент
    Скачать бесплатно Папа, сдохни
    Папа, сдохни скачать торрент
    Папа, сдохни смотреть онлайн
    Cкачать фильм Папа, сдохни бесплатно
    Папа, сдохни скачать торрент в хорошем качестве
    Папа, сдохни смотреть онлайн бесплатно в хорошем качестве


    Вы не можете начинать темы
    Вы не можете отвечать на сообщения
    Вы не можете редактировать свои сообщения
    Вы не можете удалять свои сообщения
    Вы не можете голосовать в опросах
    Вы не можете прикреплять файлы к сообщениям
    Вы можете скачивать файлы