Мега распродажа FORZA HORIZON 4 ULTIMATE+ВСЕ DLC+ОНЛАЙН всего за 499р. 349 руб. (супер цена). Внимание количество ограничено!!!

Лицензия

30

iTunes

мы

iTunes

1

1 сезон

Чернобыль

1 сезон

Ральф против интернета

MVO

Покемон. Детектив Пикачу

8 сезон

Игра престолов

iTunes

1+1

ИГРА 18+

pack

ВАЖНО

!!Акция!!

Alien_RageХит недели

RePack

Resident Evil 21
pack

RePack

Metro:Exodus

!!Акция!!

Alien_Rage

RePack

fifa19

RePack

Assassins Creed: Odyssey

RePack

NEED FOR SPEED™ PAYBACK

3 сезон

9 сезон

Бесстыжие 9 сезон

Все сериалы

все сериалы на PB.wtf

RePack

FAR CRY 5
Ребята, катастрофически не хватает 2730р. для оплаты серверов за МАЙ (всвязи с блокировками трафик упал в 3 раза), 1-2р., выручайте.
  

Проклятие плачущей / The Curse of La Llorona (Майкл Чавес) [2019, ужасы, триллер, детектив, WEBRip 720p] DUB [Line] piratbit.pw

Проклятие плачущей через торрент piratbit.pw

Раздают: 13 [ 451 KB/s ]
Размер: 3.95 GB | Добавлен: 9 д. назад | Торрент скачан:85 раз
Скачать  

24-04-2019 14:35 Проклятие плачущей Скачать торрент  

Проклятие плачущей / The Curse of La Llorona Год выпуска: 2019
Страна: США
Жанр: ужасы, триллер, детектив
Продолжительность: 01:33:39
Перевод: Дублированный | Line
Субтитры: Вшитые

Режиссер: Майкл Чавес

rating

В ролях:

Линда Карделлини, Роман Кристу, Джейни-Линн Кинчен, Рэймонд Крус, Марисоль Рамирез, Патрисия Веласкес, Шон Патрик Томас, Тони Амендола, Ирен Кэн, Оливер Александр

Описание:

Ла Йорона. Плачущая женщина. Вселяющий ужас призрак, затерянный между Раем и Адом и загнанный в ужасную ловушку судьбы, запечатанную его собственной рукой. Простое упоминание ее имени сеет страх по всему миру уже многие поколения. Еще при жизни женщина утопила своих детей в порыве яростной ревности, бросившись в бушующую реку вслед за ними, рыдая от боли и отчаяния. Теперь ее слезы вечны и несут смерть. Тот, кто слышит ее предсмертный крик в ночи, обречен. Ла Йорона крадется в тени и охотится на детей, отчаянно пытаясь восполнить утрату собственных. Проходят столетия, она становится все более ненасытной... а её методы все более ужасными.

Качество: WEB-DL 720p
Формат: MKV

Видео: h.264,5 592 Кбит/с, 1280x536
Аудио: Русский, (AC3, 2 ch, 384 Кбит/с)
скриншот  скриншот  скриншот  

Общее
Уникальный идентификатор : 237583728751985416661360362192431383848 (0xB2BCF63543E3AB96AF2A3BA3408E8528)
Полное имя : D:\TheCurseofLaLlorona.2019.D.HDTV.72Op.mkv
Формат : Matroska
Версия формата : Version 2
Размер файла : 3,95 Гбайт
Продолжительность : 1 ч. 33 м.
Режим общего битрейта : Переменный
Общий поток : 6042 Кбит/сек
Дата кодирования : UTC 2019-06-10 03:38:48
Программа кодирования : mkvmerge v8.3.0 ('Over the Horizon') 64bit
Библиотека кодирования : libebml v1.3.1 + libmatroska v1.4.2

Видео
Идентификатор : 1
Формат : AVC
Формат/Информация : Advanced Video Codec
Профиль формата : High@L4.1
Параметр CABAC формата : Да
Параметр RefFrames формата : 4 кадра
Идентификатор кодека : V_MPEG4/ISO/AVC
Продолжительность : 1 ч. 33 м.
Вид битрейта : Переменный
Битрейт : 5592 Кбит/сек
Максимальный битрейт : 6100 Кбит/сек
Ширина : 1280 пикселей
Высота : 536 пикселей
Соотношение сторон : 2,40:1
Режим частоты кадров : Постоянный
Частота кадров : 23,976 (24000/1001) кадра/сек
Стандарт вещания : Component
Цветовое пространство : YUV
Субдискретизация насыщенности : 4:2:0
Битовая глубина : 8 бит
Тип развёртки : Прогрессивная
Бит/(Пиксели*Кадры) : 0.333
Размер потока : 3,58 Гбайт (91%)
Default : Да
Forced : Нет
Цветовой диапазон : Limited
Основные цвета : BT.709
Характеристики трансфера : BT.709
Коэффициенты матрицы : BT.709

Аудио
Идентификатор : 2
Формат : AC-3
Формат/Информация : Audio Coding 3
Расширение режима : CM (complete main)
Параметр Endianness формата : Big
Идентификатор кодека : A_AC3
Продолжительность : 1 ч. 33 м.
Вид битрейта : Постоянный
Битрейт : 448 Кбит/сек
Каналы : 2 канала
Расположение каналов : Front: L R
Частота : 48,0 КГц
Частота кадров : 31,250 кадров/сек (1536 spf)
Метод сжатия : С потерями
Размер потока : 300 Мбайт (7%)
Default : Да
Forced : Нет

piratbit.pw



Скачать Проклятие плачущей через торрент https://c.radikal.ru/c16/1904/47/5a024f7a9544.jpg Скачать фильм Проклятие плачущей через торрент бесплантно в хорошем качестве Описание: Ла Йорона. Плачущая женщина. Вселяющий ужас призрак, затерянный между Раем и Адом и загнанный в ужасную ловушку судьбы, ... 10 10 7
Торрент: Зарегистрирован [2019-06-10 16:09] · скачан: 85 раз
Статус: T временная
Размер: 3.95 GB
Как cкачать? Как скачать Проклятие плачущей через торрент | qTorrent

% Раздел Тема Автор DL S | L
T Фильмы (мультфильмы) cо спонсором показа (Новинки AVI/MKV) [ 4.44 GB ] Проклятие плачущей / The Curse of La Llorona [2019 WEBRip 1080p] DUB [Line] bober100 Скачать
10 | 0
T Фильмы (мультфильмы) cо спонсором показа (Новинки AVI/MKV) [ 4.16 GB ] Проклятие плачущей / The Curse of La Llorona [2019 WEBRip 1080p] MVO [@MUZOBOZ@] bober100 Скачать
9 | 0
T Фильмы (мультфильмы) cо спонсором показа (Новинки AVI/MKV) [ 3.76 GB ] Проклятие плачущей / The Curse of La Llorona [2019 WEBRip 720p] MVO [@MUZOBOZ@] bober100 Скачать
4 | 0
T Фильмы (мультфильмы) cо спонсором показа (Новинки AVI/MKV) [ 1.37 GB ] Проклятие плачущей / The Curse of La Llorona [2019 WEBRip] MVO [@MUZOBOZ@] bober100 Скачать
14 | 0
T Фильмы (мультфильмы) cо спонсором показа (Новинки AVI/MKV) [ 1.37 GB ] Проклятие плачущей / The Curse of La Llorona [2019 WEBRip] DUB [Line] bober100 Скачать
17 | 0


>> Регистрируемся здесь <<






Отзывы и комментарии о схеме читаем и пишем здесь: ---> Отзывы и комментарии о схеме

Новые благодарочки в телеграм довольных пользователей:
скриншот   скриншот   скриншот   скриншот   скриншот
    Дорогой пользователь! Огромная просьба, поблагодарите релизера, оцените раздачу и оставьте свои комментарий, если Вы скачали Проклятие плачущей через торрент бесплатно! Внесите свою лепту в развитие PiratBit!
    Комментировать посты могут только пользователи прошедшие не сложную регистрацию
    Показать сообщения:    

    Проклятие плачущей через торрент
    Скачать бесплатно Проклятие плачущей
    Проклятие плачущей скачать торрент
    Проклятие плачущей смотреть онлайн
    Cкачать фильм Проклятие плачущей бесплатно
    Проклятие плачущей скачать торрент в хорошем качестве
    Проклятие плачущей смотреть онлайн бесплатно в хорошем качестве


    Вы не можете начинать темы
    Вы не можете отвечать на сообщения
    Вы не можете редактировать свои сообщения
    Вы не можете удалять свои сообщения
    Вы не можете голосовать в опросах
    Вы не можете прикреплять файлы к сообщениям
    Вы можете скачивать файлы