новый адрес
Мега распродажа FORZA HORIZON 4 ULTIMATE+ВСЕ DLC+ОНЛАЙН всего за 499р. 349 руб. (супер цена). Внимание количество ограничено!!!

iTunes

1+1

iTunes

мы

iTunes

1

iTunes

Чернобыль

iTunes

Ральф против интернета

Лицензия

ПШазам

Лицензия

Игра престолов

Лицензия

30
pack

ВАЖНО

!!Акция!!

Alien_RageХит недели

RePack

Resident Evil 21

ИГРА 18+

pack

RePack

Metro:Exodus

!!Акция!!

Alien_Rage

RePack

fifa19

RePack

Assassins Creed: Odyssey

RePack

NEED FOR SPEED™ PAYBACK

3 сезон

9 сезон

Бесстыжие 9 сезон

Все сериалы

все сериалы на PB.wtf

RePack

FAR CRY 5
Ребята, катастрофически не хватает 1900р. для оплаты серверов за Октябрь (всвязи с блокировками трафик упал в 3 раза), 1-2р., выручайте.
  

Новый Comedy Club / Сезон: 15 / Серии: 1-23 из 25 [2019, ТВ-шоу, юмор, SATRip] piratbit.pw

Новый Comedy Club через торрент piratbit.pw

Раздают: 6 [ 868 KB/s ] Качают: 9 [ 0 KB/s ]
Размер: 13.47 GB | Добавлен: 1 д. 23 ч. назад | Торрент скачан:4 раза
Скачать  

19-04-2019 14:36 Новый Comedy Club Скачать торрент  

Новый Comedy Club Год выпуска: 2019
Страна: Россия
Жанр: ТВ-шоу, юмор
Продолжительность: 00:47:00
Перевод: Не требуется
Субтитры: отсутствуют

В ролях: Гарик Мартиросян, Павел Воля, Гарик Харламов, Тимур Батрутдинов, Александр Ревва, Дмитрий Сорокин, Зураб Матуа, Андрей Аверин, Марина Кравец, Антон Лирник, Андрей Молочный, Александр Незлобин, Виктор Васильев (III), Семён Слепаков

Описание: Невероятная энергетика, уютная атмосфера, гениальный юмор – все это слагаемые успеха самого успешного, модного, смешного и талантливого шоу молодых юмористов, которые никогда не придерживаются никаких правил и границ.

Качество: SATRip
Формат: AVI

Видео: XviD, ~ 1700 Кбит/с, 720x400
Аудио: MP3, 2 ch, 192 Кбит/с
скриншот  скриншот  скриншот  

Общее
Полное имя : D:\Comedy Club.S15.XviD.SATRip.25Kuzmich\Comedy Club.S15E01.XviD.SATRip.25Kuzmich.avi
Формат : AVI
Формат/Информация : Audio Video Interleave
Размер файла : 622 Мбайт
Продолжительность : 46 м. 57 с.
Общий поток : 1852 Кбит/сек
Программа кодирования : VirtualDubMod 1.5.10.3 (build 2550/release)
Библиотека кодирования : VirtualDubMod build 2550/release

Видео
Идентификатор : 0
Формат : MPEG-4 Visual
Профиль формата : Advanced Simple@L5
Параметр BVOP формата : 1
Параметр QPel формата : Нет
Параметр GMC формата : Без точки перехода
Параметр матрицы формата : Default (MPEG)
Идентификатор кодека : XVID
Идентификатор кодека/Подсказка : XviD
Продолжительность : 46 м. 57 с.
Битрейт : 1650 Кбит/сек
Ширина : 720 пикселей
Высота : 400 пикселей
Соотношение сторон : 16:9
Частота кадров : 25,000 кадров/сек
Цветовое пространство : YUV
Субдискретизация насыщенности : 4:2:0
Битовая глубина : 8 бит
Тип развёртки : Прогрессивная
Метод сжатия : С потерями
Бит/(Пиксели*Кадры) : 0.229
Размер потока : 554 Мбайт (89%)
Библиотека кодирования : XviD 65

Аудио
Идентификатор : 1
Формат : MPEG Audio
Версия формата : Version 1
Профиль формата : Layer 3
Режим : Joint stereo
Расширение режима : MS Stereo
Идентификатор кодека : 55
Идентификатор кодека/Подсказка : MP3
Продолжительность : 46 м. 57 с.
Вид битрейта : Постоянный
Битрейт : 192 Кбит/сек
Каналы : 2 канала
Частота : 48,0 КГц
Метод сжатия : С потерями
Размер потока : 64,5 Мбайт (10%)
Выравнивание : Соединение по промежуткам
Продолжительность промежутка : 40 мс. (1,00 видеокадр)
Время предзагрузки промежутка : 504 мс.
Библиотека кодирования : LAME3.99r
Настройки программы : -m j -V 4 -q 2 -lowpass 18.6 -b 192

Внимание! Раздача ведётся путём добавления новых серий; при каждом добавлении создаётся новый торрент. Чтобы начать докачку новой серии, пользователям необходимо сделать следующее:
(1) остановить скачивание,
(2) удалить старый торрент у себя из клиента (старые серии удалять не надо),
(3) скачать новый торрент и запустить его у себя в клиенте вместо старого, при этом указать клиенту путь в старую папку куда и должно происходить скачивание новых серий.
Ваш клиент при этом должен произвести хеширование (проверку) старой папки (если не производит сам - помогите ему сделать это), и будет докачивать только те серии которых у вас ещё нет. Старые серии при этом не удаляются, а продолжают раздаваться!
Eсли вы уже удалили старые серии, то предотвратить повторную закачку старых серий можно, отжав галочку в соответствующих местах при запуске нового торрента. По возможности, желательно не удалять старые серии как можно дольше чтобы релизёр не столько продолжал раздавать старые серии, а смог сконцентрироваться на новых.
piratbit.pw



Скачать Новый Comedy Club через торрент http://pic1.kartinco.top/images/12/dhjle.jpg Скачать фильм Новый Comedy Club через торрент бесплантно в хорошем качестве Описание: Невероятная энергетика, уютная атмосфера, гениальный юмор – все это слагаемые успеха самого успешного, модного, смешного и ... 9.6 10 23
Торрент: Зарегистрирован [2019-11-15 16:22] · скачан: 4 раз
Статус: √ проверено
Размер: 13.47 GB
Как cкачать? Как скачать Новый Comedy Club через торрент | qTorrent

% Раздел Тема Автор DL S | L
Comedy Club - Комеди Клаб new [ 34.47 GB ] Новый Comedy Club / Сезон: 15 / Серии: 1-23 из 25 [2019 ТВ-шоу юмор WEB-DL 1080p] bober100 Скачать
3 | 9
Comedy Club - Комеди Клаб new [ 23.9 GB ] Новый Comedy Club / Сезон: 15 / Серии: 1-23 из 25 [2019 ТВ-шоу юмор WEB-DL 720p] bober100 Скачать
2 | 11


>> Регистрируемся здесь <<






Отзывы и комментарии о схеме читаем и пишем здесь: ---> Отзывы и комментарии о схеме

Новые благодарочки в телеграм довольных пользователей:
скриншот   скриншот   скриншот   скриншот   скриншот
    Дорогой пользователь! Огромная просьба, поблагодарите релизера, оцените раздачу и оставьте свои комментарий, если Вы скачали Новый Comedy Club через торрент бесплатно! Внесите свою лепту в развитие PiratBit!
    Комментировать посты могут только пользователи прошедшие не сложную регистрацию
    Показать сообщения:    

    Новый Comedy Club через торрент
    Скачать бесплатно Новый Comedy Club
    Новый Comedy Club скачать торрент
    Новый Comedy Club смотреть онлайн
    Cкачать фильм Новый Comedy Club бесплатно
    Новый Comedy Club скачать торрент в хорошем качестве
    Новый Comedy Club смотреть онлайн бесплатно в хорошем качестве


    Вы не можете начинать темы
    Вы не можете отвечать на сообщения
    Вы не можете редактировать свои сообщения
    Вы не можете удалять свои сообщения
    Вы не можете голосовать в опросах
    Вы не можете прикреплять файлы к сообщениям
    Вы можете скачивать файлы