1 сезон

3 сезон

iTunes

1

iTunes

DUB Netflix

iTunes

13

1 сезон

RePack

30

Deluxe

pack

Легкие деньги

ВАЖНО

ИГРА 18+

pack

RePack

MK11

RePack

jed

RePack

fifa19

RePack

RDR2

RePack

NEED FOR SPEED™ PAYBACK

4 сезон

9 сезон

Бесстыжие 9 сезон

Все сериалы

все сериалы на PB.wtf

RePack

FAR CRY 5

Anonymous, доброй ночи, мы не успеваем до 1 числа собрать деньги на оплату серверов, помогите нам пожалуйста в это трудное время. В качестве благодарности мы отключим Вам всю рекламу на сайте (укажите свой ник в строку Ваше имя)!

×
  
Magnet ссылка

Инопланетное похищение / Alien Abduction (Мэтти Бекерман) [2014, ужасы, фантастика, триллер, HDRip, Любительский (одноголосый)[datynet] piratbit.pw

Инопланетное похищение через торрент piratbit.pw

Размер: 1.46 GB | Добавлен: 6 лет 9 мес. назад | Торрент скачан:1167 раз
Скачать  

10-09-2014 13:21 Инопланетное похищение Скачать торрент  

Инопланетное похищение / Alien Abduction
«Fear The Lights»

Год выпуска: 2014
Страна: США
Жанр:ужасы, фантастика, триллер
Продолжительность:01:25:23
Перевод:Любительский (одноголосый)[datynet]
Режиссер:Мэтти Бекерман

  • В ролях:
    Кэтрин Сигизмунд (Katie Morris), Кори Эйд (Corey Morris), Райли Полянски (Riley Morris), Джиллиан Клер (Jillian Morris), Джефф Баузер (Sean), Питер Эсли Холден (Peter Morris), Уолтер Фелан, Джордан Турчин (Officer James), Келли Хинман (Park Ranger), Бенжамин Шарплс (Agent), Daniel Caton (играет самого себя), Рик Чэмберс (Newscaster)


  • Описание:
    Семья на отдыхе сталкивается с угрозой инопланетного вторжения. Все происходящее они исправно записывают на видеопленку. А началось все с ярких огней в ночном небе...

  • Мировая премьера:4 апреля 2014

    Качество: HDRip
    Формат:AVI
    Видео кодек: XviD
    Аудио кодек:AC3, MP3
    Видео: XviD, 720x400 (16:9), 1797 kbps, 23,976 fps, 0,260 bpp
    Аудио №1: MP3 / 2.0 / 44 kHz / 192 kbps / Russian
    Аудио №2: AC3 / 5.1 / 48 kHz / 448 kbps / English


    Код:

    General
    Complete name                            : D:\Торенты\Alien.Abduction.2014.L1.HDRip.1.46GB.avi
    Format                                   : AVI
    Format/Info                              : Audio Video Interleave
    File size                                : 1.46 GiB
    Duration                                 : 1h 25mn
    Overall bit rate                         : 2 451 Kbps
    Writing application                      : VirtualDubMod 1.5.10.3 | www.virtualdub-fr.org || (build 2550/release)
    Writing library                          : VirtualDubMod build 2550/release

    Video
    ID                                       : 0
    Format                                   : MPEG-4 Visual
    Format profile                           : Advanced Simple@L5
    Format settings, BVOP                    : 2
    Format settings, QPel                    : No
    Format settings, GMC                     : No warppoints
    Format settings, Matrix                  : Default (H.263)
    Muxing mode                              : Packed bitstream
    Codec ID                                 : XVID
    Codec ID/Hint                            : XviD
    Duration                                 : 1h 25mn
    Bit rate                                 : 1 797 Kbps
    Width                                    : 720 pixels
    Height                                   : 400 pixels
    Display aspect ratio                     : 16:9
    Frame rate                               : 23.976 fps
    Color space                              : YUV
    Chroma subsampling                       : 4:2:0
    Bit depth                                : 8 bits
    Scan type                                : Progressive
    Compression mode                         : Lossy
    Bits/(Pixel*Frame)                       : 0.260
    Stream size                              : 1.07 GiB (73%)
    Writing library                          : XviD 64

    Audio #1
    ID                                       : 1
    Format                                   : MPEG Audio
    Format version                           : Version 1
    Format profile                           : Layer 3
    Codec ID                                 : 55
    Codec ID/Hint                            : MP3
    Duration                                 : 1h 25mn
    Bit rate mode                            : Constant
    Bit rate                                 : 192 Kbps
    Channel(s)                               : 2 channels
    Sampling rate                            : 44.1 KHz
    Compression mode                         : Lossy
    Stream size                              : 117 MiB (8%)
    Alignment                                : Split accross interleaves
    Interleave, duration                     : 42 ms (1.00 video frame)
    Interleave, preload duration             : 500 ms

    Audio #2
    ID                                       : 2
    Format                                   : AC-3
    Format/Info                              : Audio Coding 3
    Mode extension                           : CM (complete main)
    Codec ID                                 : 2000
    Duration                                 : 1h 25mn
    Bit rate mode                            : Constant
    Bit rate                                 : 448 Kbps
    Channel(s)                               : 6 channels
    Channel positions                        : Front: L C R, Side: L R, LFE
    Sampling rate                            : 48.0 KHz
    Bit depth                                : 16 bits
    Compression mode                         : Lossy
    Delay relative to video                  : 52ms
    Stream size                              : 274 MiB (18%)
    Alignment                                : Split accross interleaves
    Interleave, duration                     : 42 ms (1.00 video frame)
    Interleave, preload duration             : 500 ms

    Скриншоты:

    Срочно! Нужна помощь!
    Поблагодарить релизера!
    piratbit.pw



  • Скачать Инопланетное похищение через торрент https://pic1.kartinco.top/images/61/stazu.jpg Скачать фильм Инопланетное похищение через торрент бесплантно в хорошем качестве Описание:Семья на отдыхе сталкивается с угрозой инопланетного вторжения. Все происходящее они исправно записывают на видеопленку. А ... 9.5 10 40
    Торрент: Зарегистрирован [2014-09-10 13:21] · скачан: 1 167 раз
    Статус: T временная
    Размер: 1.46 GB
    Как cкачать? Как скачать Инопланетное похищение через торрент | UTorrent

    % Раздел Тема Автор DL S | L
    T Фильмы [HD 720p, 1080p] (Звук Cam, VO, DVO) [ 4.48 GB ] Инопланетное похищение / Alien Abduction [2014 BDRip 720pЛюбительский [datynet] перевод [Janetta] Gofa Скачать
    1 | 0
    Фильмы без перевода [ 1.34 GB ] Инопланетное похищение / Alien Abduction [2014 HDRip Субтитры Русские] Ворон Скачать
    1 | 0

    28-11-2019 20:33  

    Отключить всю рекламу на сайте

    10-09-2014 13:35 Инопланетное похищение Скачать торрент  

    Спасибо , люблю фантастику .Посмотрим...piratbit.pw



    10-09-2014 18:00 Инопланетное похищение Скачать торрент  

    Отличный перевод и озвучка ! Да и кино в общем-то забавное, местами хороший жим-жим.

    Update: Блин, досмотрел до конца, вторая половина фильма - без памперсов не обойтись, ночью одному (ой) смотреть не рекомедую. Давно я так ужастиков не боялсяpiratbit.pw



    10-09-2014 18:05 Инопланетное похищение Скачать торрент  

    Надоели уже эти съёмки "бегущей" камерой...piratbit.pw



    10-09-2014 19:20 Инопланетное похищение Скачать торрент  

    Афигенный фильм реально стрёмноpiratbit.pw



    21-09-2014 18:56 Инопланетное похищение Скачать торрент  

    согласен ! , с бегущей камерой только низкосортное кино снимать !

    valentine2107 писал(а):

    Надоели уже эти съёмки "бегущей" камерой...

    piratbit.pw



    29-09-2014 17:36 Инопланетное похищение Скачать торрент  

    отстой :cansored: piratbit.pw



    07-10-2014 05:31 Инопланетное похищение Скачать торрент  

    афегеный фильм piratbit.pw



      Дорогой пользователь! Огромная просьба, поблагодарите релизера, оцените раздачу и оставьте свои комментарий, если Вы скачали Инопланетное похищение через торрент бесплатно! Внесите свою лепту в развитие PiratBit!
      Комментировать посты могут только пользователи прошедшие не сложную регистрацию
      Показать сообщения:    

      Инопланетное похищение через торрент
      Скачать бесплатно Инопланетное похищение
      Инопланетное похищение скачать торрент
      Инопланетное похищение смотреть онлайн
      Cкачать фильм Инопланетное похищение бесплатно
      Инопланетное похищение скачать торрент в хорошем качестве
      Инопланетное похищение смотреть онлайн бесплатно в хорошем качестве


      Вы не можете начинать темы
      Вы не можете отвечать на сообщения
      Вы не можете редактировать свои сообщения
      Вы не можете удалять свои сообщения
      Вы не можете голосовать в опросах
      Вы не можете прикреплять файлы к сообщениям
      Вы можете скачивать файлы