1 сезон

1 сезон

iTunes

1

КиноПоиск HD

Кинопоиск HD

iTunes

13

1 сезон

RePack

30

Новинка

ВАЖНО

ИГРА 18+

pack

RePack

MK11
pack

Легкие деньги

RePack

jed

RePack

fifa19

RePack

RDR2

RePack

NEED FOR SPEED™ PAYBACK

4 сезон

9 сезон

Бесстыжие 9 сезон

Все сериалы

все сериалы на PB.wtf

RePack

FAR CRY 5
  
Magnet ссылка

Графиня Дракула / Countess Dracula (Петер Шашди) [1971, ужасы, BDRip 720p by msltel] AVO piratbit.pw

Графиня Дракула через торрент piratbit.pw

Размер: 4.22 GB | Добавлен: 2 года назад | Торрент скачан:4 раза
Скачать  

12-04-2019 06:56 Графиня Дракула Скачать торрент  

Название: Графиня Дракула
Оригинальное название: Countess Dracula
Год выпуска: 1971
Страна: Великобритания
Жанр: ужасы
Продолжительность: 01:33:18
Перевод: авторский

Режиссер: Петер шашди
В ролях: Ингрид Питт, Найджел Грин, Шандор Элеш, Морис Денэм, Пейшнс Колльер, Питер Джефри, Лесли-Энн Даун, Леон Лиссек, Джесси Эванс, Андреа Лоуренс

О фильме: XVII век. Венгрия. Графиня Элизабет Надашди решает, что её молодой облик и сексуальная привлекательность могут быть временно восстановлены, если она искупается в ванне из крови молодых женщин. Она уговаривает своего бывшего возлюбленного и управляющего замком капитана Доби помогать ей в похищении и убийстве местных девочек, одновременно с этим ища сексуальные приключения в обществе лейтенанта Имре Тота. Для сокрытия своих преступлений графиня выдаёт себя за свою юную дочь. Однако, в конце концов, Доби сообщает молодому человеку тайну Элизабет. Впрочем, графиня даже довольна сложившейся ситуацией — она шантажом заставляет Имре жениться на ней... (Википедия). В основе фильма лежит книга Валентины Пенроуз «Кровавая графиня» (1962).



Качество: BDRip 720p
Формат: MKV
Видео: MPEG-4 AVC, 6090 Кбит/с, 1192x720
Аудио 1: русский, AC3, 192 kbps, 2 ch, 48 kHz [авторский, Владимир Сонькин]
Аудио 2: английский, AC3, 192 kbps, 2 ch, 48 kHz [оригинал]
Субтитры: английские
Главы/чаптеры
Общее
Уникальный идентификатор : 220986460561916296598541287611373626152 (0xA64071B5209B6A21A34DDD94DDD6A328)
Полное имя : D:\Video\Графиня Дракула.1971.BDRip 720p by msltel.mkv
Формат : Matroska
Версия формата : Version 4
Размер файла : 4,22 Гбайт
Продолжительность : 1 ч. 33 м.
Общий поток : 6477 Кбит/сек
Название фильма : Rip by msltel
Дата кодирования : UTC 2019-04-11 08:37:07
Программа кодирования : mkvmerge v8.2.0 ('World of Adventure') 64bit
Библиотека кодирования : libebml v1.3.1 + libmatroska v1.4.2

Видео
Идентификатор : 1
Формат : AVC
Формат/Информация : Advanced Video Codec
Профиль формата : High@L4.1
Настройки формата : CABAC / 9 Ref Frames
Параметр CABAC формата : Да
Параметр RefFrames формата : 9 кадров
Идентификатор кодека : V_MPEG4/ISO/AVC
Продолжительность : 1 ч. 33 м.
Битрейт : 6090 Кбит/сек
Ширина : 1192 пикселя
Высота : 720 пикселей
Соотношение сторон : 5:3
Режим частоты кадров : Постоянный
Частота кадров : 23,976 (24000/1001) кадра/сек
Цветовое пространство : YUV
Субдискретизация насыщенности : 4:2:0
Битовая глубина : 8 бит
Тип развёртки : Прогрессивная
Бит/(Пиксели*Кадры) : 0.296
Размер потока : 3,97 Гбайт (94%)
Библиотека кодирования : x264 core 157 r2935 545de2f
Настройки программы : cabac=1 / ref=9 / deblock=1:-2:-2 / analyse=0x3:0x113 / me=umh / subme=11 / psy=1 / psy_rd=1.00:0.15 / mixed_ref=1 / me_range=32 / chroma_me=1 / trellis=2 / 8x8dct=1 / cqm=0 / deadzone=21,11 / fast_pskip=0 / chroma_qp_offset=-3 / threads=6 / lookahead_threads=1 / sliced_threads=0 / nr=0 / decimate=1 / interlaced=0 / bluray_compat=0 / constrained_intra=0 / bframes=11 / b_pyramid=2 / b_adapt=2 / b_bias=0 / direct=1 / weightb=1 / open_gop=0 / weightp=2 / keyint=230 / keyint_min=23 / scenecut=40 / intra_refresh=0 / rc_lookahead=40 / rc=crf / mbtree=1 / crf=20.0 / qcomp=0.60 / qpmin=0 / qpmax=69 / qpstep=4 / vbv_maxrate=50000 / vbv_bufsize=62500 / crf_max=0.0 / nal_hrd=none / filler=0 / ip_ratio=1.40 / aq=1:1.00
Язык : English
Default : Да
Forced : Нет

Аудио #1
Идентификатор : 2
Формат : AC-3
Формат/Информация : Audio Coding 3
Коммерческое название : Dolby Digital
Идентификатор кодека : A_AC3
Продолжительность : 1 ч. 33 м.
Вид битрейта : Постоянный
Битрейт : 192 Кбит/сек
Каналы : 2 канала
Channel layout : L R
Частота : 48,0 КГц
Частота кадров : 31,250 кадров/сек (1536 SPF)
Битовая глубина : 16 бит
Метод сжатия : С потерями
Размер потока : 128 Мбайт (3%)
Заголовок : Владимир Сонькин
Язык : Russian
ServiceKind/String : Complete Main
Default : Да
Forced : Нет

Аудио #2
Идентификатор : 3
Формат : AC-3
Формат/Информация : Audio Coding 3
Коммерческое название : Dolby Digital
Идентификатор кодека : A_AC3
Продолжительность : 1 ч. 33 м.
Вид битрейта : Постоянный
Битрейт : 192 Кбит/сек
Каналы : 2 канала
Channel layout : L R
Частота : 48,0 КГц
Частота кадров : 31,250 кадров/сек (1536 SPF)
Битовая глубина : 16 бит
Метод сжатия : С потерями
Размер потока : 128 Мбайт (3%)
Заголовок : original
Язык : English
ServiceKind/String : Complete Main
Default : Нет
Forced : Нет

Текст
Идентификатор : 4
Формат : UTF-8
Идентификатор кодека : S_TEXT/UTF8
Идентификатор кодека/Информация : UTF-8 Plain Text
Продолжительность : 1 ч. 32 м.
Битрейт : 53 бит/сек
ElementCount : 1329
Размер потока : 35,8 Кбайт (0%)
Заголовок : английские
Язык : English
Default : Нет
Forced : Нет

Меню
00:00:00.000 : :Chapter 1
00:07:50.428 : :Chapter 2
00:14:13.644 : :Chapter 3
00:23:47.634 : :Chapter 4
00:29:07.370 : :Chapter 5
00:37:04.472 : :Chapter 6
00:46:20.736 : :Chapter 7
00:53:32.375 : :Chapter 8
01:00:55.693 : :Chapter 9
01:09:56.024 : :Chapter 10
01:16:58.863 : :Chapter 11
01:24:41.993 : :Chapter 12
piratbit.pw



Скачать Графиня Дракула через торрент https://d.radikal.ru/d16/1904/c5/7d9d7c762050.jpg Скачать фильм Графиня Дракула через торрент бесплантно в хорошем качестве О фильме: XVII век. Венгрия. Графиня Элизабет Надашди решает, что её молодой облик и сексуальная привлекательность могут быть временно ... 10 10 3
Info! Золотая раздача, скачанное не засчитывается.
Торрент: Зарегистрирован [2019-04-12 06:56] · скачан: 4 раз
Статус: √ проверено
Размер: 4.22 GB
Как cкачать? Как скачать Графиня Дракула через торрент | UTorrent

% Раздел Тема Автор DL S | L
Фильмы с авторской озвучкой [ 12.2 GB ] Графиня Дракула / Countess Dracula [1971 BDRip 1080p by msltel] AVO msltel Скачать
1 | 0

28-11-2019 20:33  

Отключить всю рекламу на сайте

    Дорогой пользователь! Огромная просьба, поблагодарите релизера, оцените раздачу и оставьте свои комментарий, если Вы скачали Графиня Дракула через торрент бесплатно! Внесите свою лепту в развитие PiratBit!
    Комментировать посты могут только пользователи прошедшие не сложную регистрацию
    Показать сообщения:    

    Графиня Дракула через торрент
    Скачать бесплатно Графиня Дракула
    Графиня Дракула скачать торрент
    Графиня Дракула смотреть онлайн
    Cкачать фильм Графиня Дракула бесплатно
    Графиня Дракула скачать торрент в хорошем качестве
    Графиня Дракула смотреть онлайн бесплатно в хорошем качестве


    Вы не можете начинать темы
    Вы не можете отвечать на сообщения
    Вы не можете редактировать свои сообщения
    Вы не можете удалять свои сообщения
    Вы не можете голосовать в опросах
    Вы не можете прикреплять файлы к сообщениям
    Вы можете скачивать файлы