Ссылка на приватное зеркало нашего сайта всего за 1$. Внимание количество ограничено!!!

2 сезон

iTunes

iTunes

1

iTunes

iTunes

iTunes

WEBRip

iTunes

30
pack

Новость дня

ВАЖНО

!!Акция!!

Alien_RageХит недели

RePack

Horizon Zero Dawn

ИГРА 18+

pack

RePack

jed

!!Акция!!

Alien_Rage

RePack

fifa19

RePack

Assassins Creed: Odyssey

RePack

NEED FOR SPEED™ PAYBACK

4 сезон

9 сезон

Бесстыжие 9 сезон

Все сериалы

все сериалы на PB.wtf

RePack

FAR CRY 5
  

Человек-паук: Через вселенные / Spider-Man: Into the Spider-Verse (Боб Персичетти, Питер Рэмзи, Родни Ротман) [2018, мультфильм, фантастика, боевик, комедия, приключения, семейный, UHD BDRemux 2160p] DUB (rus , ukr) [Лицензия] piratbit.pw

Человек-паук: Через вселенные через торрент piratbit.pw

Раздают: 1 [ 93 KB/s ]
Размер: 43.09 GB | Добавлен: 1 год 5 мес. назад | Торрент скачан:41 раз
Скачать  

11-04-2019 14:25 Человек-паук: Через вселенные Скачать торрент  

Человек-паук: Через вселенные / Spider-Man: Into the Spider-Verse
Год выпуска: 2018
Страна: США
Жанр: мультфильм, фантастика, боевик, комедия, приключения, семейный
Продолжительность: 01:56:50
Перевод: Дублированный | Лицензия
Субтитры: Русские (Forced, full), украинские (Full), английские

Режиссер: Боб Персичетти, Питер Рэмзи, Родни Ротман

rating

В ролях:

Шамеик Мур (Miles Morales, озвучка), Джейк Джонсон (Peter B. Parker, озвучка), Хейли Стайнфелд (Gwen Stacy, озвучка), Махершала Али (Uncle Aaron, озвучка), Брайан Тайри Генри (Jefferson Davis, озвучка), Лили Томлин (Aunt May, озвучка), Луна Лорен Велес (Rio Morales, озвучка), Зои Кравиц (Mary Jane, озвучка), Джон Малэйни (Spider-Ham, озвучка), Кимико Гленн (Peni Parker, озвучка), Николас Кейдж (Spider-Man Noir, озвучка), Кэтрин Хан (Doc Ock, озвучка)
Описание:

Мы всё знаем о Питере Паркере. Он спас город, влюбился, а потом спасал город снова и снова... Но все это - в нашем измерении. А что если в результате работы гигантского коллайдера откроется окно из одного измерения в другое? Найдется ли в нем свой Человек-паук? И как он будет выглядеть? Приготовьтесь к тому, что в разных вселенных могут быть разные Люди-пауки и однажды им придется собраться вместе для борьбы с почти непобедимым врагом.

Качество: UHD BDRemux 2160p
Формат: MKV

Видео: 3840x2160 at 23.976 fps, MPEG-H HEVC HDR Video, 47500 kbps avg
Аудио#1: 48 kHz, AC3, 5.1, 640 Kbps | Дублированный | RUS |
Аудио#2: 48 kHz, AC3, 5.1, 640 Kbps | Дублированный | UKR |
Аудио#3: 48 kHz, TrueHD, 7.1, 3267 Kbps | Оригинал | ENG |
Аудио#4: 48 kHz, AC3, 5.1, 640 Kbps | Оригинал | ENG |
скриншот  скриншот  скриншот  скриншот  скриншот  

General
Unique ID : 180038484084987225616278353719184585929 (0x877226987A7A41EE08819A33E827F4C9)
Complete name : D:Video111Spider-Man.Into.the.Spider-Verse.2018.Lic.BDREMUX.2160p.HDR.seleZen.mkv
Format : Matroska
Format version : Version 4
File size : 43.1 GiB
Duration : 1 h 56 min
Overall bit rate mode : Variable
Overall bit rate : 52.8 Mb/s
Movie name : Spider-Man.Into the Spider-Verse 2018 from селезень
Encoded date : UTC 2019-04-11 14:07:25
Writing application : mkvmerge v32.0.0 ('Astral Progressions') 64-bit
Writing library : libebml v1.3.7 + libmatroska v1.5.0

Video
ID : 1
Format : HEVC
Format/Info : High Efficiency Video Coding
Format profile : Main 10@L5.1@High
HDR format : SMPTE ST 2086, HDR10 compatible
Codec ID : V_MPEGH/ISO/HEVC
Duration : 1 h 56 min
Bit rate : 47.5 Mb/s
Width : 3 840 pixels
Height : 2 160 pixels
Display aspect ratio : 16:9
Frame rate mode : Constant
Frame rate : 23.976 (24000/1001) FPS
Color space : YUV
Chroma subsampling : 4:2:0 (Type 2)
Bit depth : 10 bits
Bits/(Pixel*Frame) : 0.239
Stream size : 38.8 GiB (90%)
Language : English
Default : Yes
Forced : No
Color range : Limited
Color primaries : BT.2020
Transfer characteristics : PQ
Matrix coefficients : BT.2020 non-constant
Mastering display color pri : Display P3
Mastering display luminance : min: 0.0050 cd/m2, max: 4000 cd/m2
Maximum Content Light Level : 9877 cd/m2
Maximum Frame-Average Light : 934 cd/m2

Audio #1
ID : 2
Format : AC-3
Format/Info : Audio Coding 3
Commercial name : Dolby Digital
Codec ID : A_AC3
Duration : 1 h 56 min
Bit rate mode : Constant
Bit rate : 640 kb/s
Channel(s) : 6 channels
Channel layout : L R C LFE Ls Rs
Sampling rate : 48.0 kHz
Frame rate : 31.250 FPS (1536 SPF)
Bit depth : 16 bits
Compression mode : Lossy
Stream size : 535 MiB (1%)
Title : Dub [License]
Language : Russian
Service kind : Complete Main
Default : Yes
Forced : Yes

Audio #2
ID : 3
Format : AC-3
Format/Info : Audio Coding 3
Commercial name : Dolby Digital
Codec ID : A_AC3
Duration : 1 h 56 min
Bit rate mode : Constant
Bit rate : 640 kb/s
Channel(s) : 6 channels
Channel layout : L R C LFE Ls Rs
Sampling rate : 48.0 kHz
Frame rate : 31.250 FPS (1536 SPF)
Bit depth : 16 bits
Compression mode : Lossy
Stream size : 535 MiB (1%)
Title : Dub [License]
Language : Ukrainian
Service kind : Complete Main
Default : No
Forced : No

Audio #3
ID : 4
Format : MLP FBA 16-ch
Format/Info : Meridian Lossless Packing FBA with 16-channel presentation
Commercial name : Dolby TrueHD with Dolby Atmos
Codec ID : A_TRUEHD
Duration : 1 h 56 min
Bit rate mode : Variable
Bit rate : 3 267 kb/s
Maximum bit rate : 4 935 kb/s
Channel(s) : 8 channels
Channel layout : L R C LFE Ls Rs Lb Rb
Sampling rate : 48.0 kHz
Frame rate : 1 200.000 FPS (40 SPF)
Compression mode : Lossless
Stream size : 2.67 GiB (6%)
Title : Original
Language : English
Default : No
Forced : No
Number of dynamic objects : 11
Bed channel count : 1 channel
Bed channel configuration : LFE

Audio #4
ID : 5
Format : AC-3
Format/Info : Audio Coding 3
Commercial name : Dolby Digital
Codec ID : A_AC3
Duration : 1 h 56 min
Bit rate mode : Constant
Bit rate : 640 kb/s
Channel(s) : 6 channels
Channel layout : L R C LFE Ls Rs
Sampling rate : 48.0 kHz
Frame rate : 31.250 FPS (1536 SPF)
Bit depth : 16 bits
Compression mode : Lossy
Stream size : 535 MiB (1%)
Language : English
Service kind : Complete Main
Default : No
Forced : No

Text #1
ID : 6
Format : UTF-8
Codec ID : S_TEXT/UTF8
Codec ID/Info : UTF-8 Plain Text
Duration : 1 h 42 min
Bit rate : 0 b/s
Count of elements : 16
Stream size : 655 Bytes (0%)
Title : Forced
Language : Russian
Default : Yes
Forced : Yes

Text #2
ID : 7
Format : UTF-8
Codec ID : S_TEXT/UTF8
Codec ID/Info : UTF-8 Plain Text
Duration : 1 h 55 min
Bit rate : 82 b/s
Count of elements : 1467
Stream size : 70.3 KiB (0%)
Title : Full
Language : Russian
Default : No
Forced : No

Text #3
ID : 8
Format : UTF-8
Codec ID : S_TEXT/UTF8
Codec ID/Info : UTF-8 Plain Text
Duration : 1 h 55 min
Bit rate : 81 b/s
Count of elements : 1468
Stream size : 68.9 KiB (0%)
Title : Full
Language : Ukrainian
Default : No
Forced : No

Text #4
ID : 9
Format : UTF-8
Codec ID : S_TEXT/UTF8
Codec ID/Info : UTF-8 Plain Text
Duration : 1 h 55 min
Bit rate : 54 b/s
Count of elements : 1389
Stream size : 46.4 KiB (0%)
Title : Full
Language : English
Default : No
Forced : No

Menu
00:00:00.000 : en:Chapter 01
00:09:03.793 : en:Chapter 02
00:14:04.719 : en:Chapter 03
00:18:51.714 : en:Chapter 04
00:29:39.027 : en:Chapter 05
00:34:14.636 : en:Chapter 06
00:40:34.432 : en:Chapter 07
00:44:22.827 : en:Chapter 08
00:48:06.884 : en:Chapter 09
00:58:45.855 : en:Chapter 10
01:06:04.460 : en:Chapter 11
01:09:55.483 : en:Chapter 12
01:20:00.003 : en:Chapter 13
01:24:54.923 : en:Chapter 14
01:33:33.399 : en:Chapter 15
01:55:26.920 : en:Chapter 16

piratbit.pw



Скачать Человек-паук: Через вселенные через торрент http://img10.lostpic.net/2019/03/11/b2b21262fe8e99e055a17fc5d53091ec.jpg Скачать фильм Человек-паук: Через вселенные через торрент бесплантно в хорошем качестве Описание: Мы всё знаем о Питере Паркере. Он спас город, влюбился, а потом спасал город снова и снова... Но все это - в нашем измерении. А ... 9.7 10 3
Торрент: Зарегистрирован [2019-04-11 14:25] · скачан: 41 раз
Статус: √ проверено
Размер: 43.09 GB
Как cкачать? Как скачать Человек-паук: Через вселенные через торрент | qTorrent

% Раздел Тема Автор DL S | L
Зарубежные Мультфильмы (BDRip 1080p, 720p, Blu-ray, BD-Remux) [ 5.76 GB ] Человек-паук: Через вселенные / Spider-Man: Into the Spider-Verse [2018 мультфильм BDRip 720p] [Локализованная версия] DUB [] - ExKinoRay Enigma2010 Скачать
14 | 0
Мультфильмы (48-60 fps) [ 17.86 GB ] Человек-паук: Через вселенные / Spider-Man: Into the Spider-Verse [2018 мультфильм BDRip 1080p 60 fps] sheker187 Скачать
1 | 1
Ultra HD (UHD: 2K, 4K, 8K) [ 26.09 GB ] Человек-паук: Через вселенные / Spider-Man: Into the Spider-Verse [2018 мультфильм UHD BDRip 2160p] [SDR] DUB [] sheker187 Скачать
1 | 0
Иностранные мультфильмы [ 1.46 GB ] Человек-паук: Через вселенные / Spider-Man: Into the Spider-Verse [2018 мультфильм BDRip] - [] [Локализованная версия] Twi7ter Скачать
2 | 0
Ultra HD (UHD: 2K, 4K, 8K) [ 16.3 GB ] Человек-паук: Через вселенные / Spider-Man: Into the Spider-Verse [2018 мультфильм UHD BDRip 2160p] DUB [] sheker187 Скачать
1 | 0
3D Мультфильмы [ 14.62 GB ] Человек-паук: Через вселенные 3Д / Spider-Man: Into the Spider-Verse 3D [2018 мультфильм BDRip 1080p] [Half OverUnder / Вертикальная анаморфная стереопара] DUB [] bober100 Скачать
1 | 0
Иностранные мультфильмы [ 2.18 GB ] Человек-паук: Через вселенные / Spider-Man: Into the Spider-Verse [2018 мультфильм BDRip] - [] [Локализованная версия] Twi7ter Скачать
2 | 0

28-11-2019 20:33  

Отключить всю рекламу на сайте

    Дорогой пользователь! Огромная просьба, поблагодарите релизера, оцените раздачу и оставьте свои комментарий, если Вы скачали Человек-паук: Через вселенные через торрент бесплатно! Внесите свою лепту в развитие PiratBit!
    Комментировать посты могут только пользователи прошедшие не сложную регистрацию
    Показать сообщения:    

    Человек-паук: Через вселенные через торрент
    Скачать бесплатно Человек-паук: Через вселенные
    Человек-паук: Через вселенные скачать торрент
    Человек-паук: Через вселенные смотреть онлайн
    Cкачать фильм Человек-паук: Через вселенные бесплатно
    Человек-паук: Через вселенные скачать торрент в хорошем качестве
    Человек-паук: Через вселенные смотреть онлайн бесплатно в хорошем качестве


    Вы не можете начинать темы
    Вы не можете отвечать на сообщения
    Вы не можете редактировать свои сообщения
    Вы не можете удалять свои сообщения
    Вы не можете голосовать в опросах
    Вы не можете прикреплять файлы к сообщениям
    Вы можете скачивать файлы