Marvel's Avengers Deluxe Edition (супер цена) 159р. Внимание количество ограничено!!!

2 сезон

iTunes

iTunes

1

iTunes

iTunes

iTunes

WEBRip

iTunes

30
pack

Новость дня

ВАЖНО

!!Акция!!

Alien_RageХит недели

RePack

Horizon Zero Dawn

ИГРА 18+

pack

RePack

jed

!!Акция!!

Alien_Rage

RePack

fifa19

RePack

Assassins Creed: Odyssey

RePack

NEED FOR SPEED™ PAYBACK

4 сезон

9 сезон

Бесстыжие 9 сезон

Все сериалы

все сериалы на PB.wtf

RePack

FAR CRY 5
  

Лови момент (Антонина Руже) [2019, комедия, WEB-DL 720p] [iTunes] piratbit.pw

Лови момент через торрент piratbit.pw

Размер: 2.35 GB | Добавлен: 1 год 5 мес. назад | Торрент скачан:103 раза
Скачать  

10-04-2019 19:07 Лови момент Скачать торрент  

Лови момент
Год выпуска: 2019
Страна: Россия
Жанр: комедия
Продолжительность: 01:16:23
Перевод: Не требуется | iTunes
Субтитры: отсутствуют

Режиссер: Антонина Руже



В ролях:

Юлия Топольницкая, Алексей Кортнев, Юрий Быков, Валерия Федорович, Юлия Сулес, Михаил Тарабукин, Ольга Кузьмина, Ингрид Олеринская, Валерия Дергилева, Алексей Весёлкин

Описание:

Главная героиня - милая амбициозная девушка Рита из провинциального городка на черноморском побережье. Она решает вырваться из рутины ведения местных свадеб и утренников и приезжает покорять столицу, пытаясь поступить в театральное училище. Ее ждет много сложных испытаний, которые порой превращаются в очень комичные истории.

Качество: WEB-DL 720p
Формат: MKV

Видео: 1280x536, (2,40:1), 24 fps, AVC MPEG-4 (x264), Main@L3.1 ~ 3936 kbps , 0.239 bit/pixel
Аудио: 48 kHz, AC3 Dolby Digital, 3/2 (L,C,R,l,r) + LFE ch, ~384 kbps
скриншот  скриншот  скриншот  скриншот  

Общее
Уникальный идентификатор : 217658603104163261817846246798291663441 (0xA3BF85AAC842190C9F6686246EC07A51)
Полное имя : C:\Users\Валерий\Desktop\Новая папка\Seize.the.moment.2019.WEB-DL.720p.ELEKTRI4KA.UNIONGANG.mkv
Формат : Matroska
Версия формата : Version 2
Размер файла : 2,35 Гбайт
Продолжительность : 1 ч. 16 м.
Общий поток : 4407 Кбит/сек
Название фильма : Seize.the.moment.2019.WEB-DL.720p.ELEKTRI4KA.UNIONGANG
Дата кодирования : UTC 2019-04-08 20:17:50
Программа кодирования : mkvmerge v7.8.0 ('River Man') 32bit built on Apr 3 2015 12:11:22
Библиотека кодирования : libebml v1.3.1 + libmatroska v1.4.2

Видео
Идентификатор : 2
Формат : AVC
Формат/Информация : Advanced Video Codec
Профиль формата : Main@L3.1
Настройки формата : 2 Ref Frames
Параметр CABAC формата : Нет
Параметр RefFrames формата : 2 кадра
Идентификатор кодека : V_MPEG4/ISO/AVC
Продолжительность : 1 ч. 16 м.
Битрейт : 3936 Кбит/сек
Ширина : 1280 пикселей
Высота : 536 пикселей
Соотношение сторон : 2,40:1
Режим частоты кадров : Постоянный
Частота кадров : 24,000 кадра/сек
Цветовое пространство : YUV
Субдискретизация насыщенности : 4:2:0
Битовая глубина : 8 бит
Тип развёртки : Прогрессивная
Бит/(Пиксели*Кадры) : 0.239
Размер потока : 2,10 Гбайт (89%)
Язык : English
Default : Да
Forced : Нет
Цветовой диапазон : Limited
Основные цвета : BT.709
Характеристики трансфера : BT.709
Коэффициенты матрицы : BT.709

Аудио
Идентификатор : 1
Формат : AC-3
Формат/Информация : Audio Coding 3
Коммерческое название : Dolby Digital
Идентификатор кодека : A_AC3
Продолжительность : 1 ч. 16 м.
Вид битрейта : Постоянный
Битрейт : 384 Кбит/сек
Каналы : 6 каналов
Channel layout : L R C LFE Ls Rs
Частота : 48,0 КГц
Частота кадров : 31,250 кадров/сек (1536 SPF)
Битовая глубина : 16 бит
Метод сжатия : С потерями
Размер потока : 210 Мбайт (9%)
Заголовок : itunes.ELEKTRI4KA
Язык : Russian
ServiceKind/String : Complete Main
Default : Да
Forced : Нет

Меню
00:00:00.000 : en:Глава 1
00:06:26.458 : en:Глава 2
00:14:17.333 : en:Глава 3
00:20:51.833 : en:Глава 4
00:26:40.541 : en:Глава 5
00:32:50.416 : en:Глава 6
00:38:28.666 : en:Глава 7
00:43:38.291 : en:Глава 8
00:48:42.124 : en:Глава 9
00:53:00.040 : en:Глава 10
00:58:05.248 : en:Глава 11
01:04:55.289 : en:Глава 12

piratbit.pw



Скачать Лови момент через торрент https://c.radikal.ru/c22/1903/b6/3345cc6e6cf3.jpg Скачать фильм Лови момент через торрент бесплантно в хорошем качестве Описание: Главная героиня - милая амбициозная девушка Рита из провинциального городка на черноморском побережье. Она решает вырваться из ... 10 10 5
Торрент: Зарегистрирован [2019-04-10 19:07] · скачан: 103 раз
Статус: √ проверено
Размер: 2.35 GB
Как cкачать? Как скачать Лови момент через торрент | qTorrent

% Раздел Тема Автор DL S | L
Фильмы (WEB-DL 720p, 1080p) [ 3.11 GB ] Лови момент / Come se non ci fosse un domani [2019 WEB-DL 1080p] MVO bober100 Скачать
2 | 0
Фильмы 2019-2020 [DVDrip, WEB-DLRip, HDrip] (DUB, MVO) [ 712 MB ] Лови момент / Come se non ci fosse un domani [2019 WEB-DLRip многоголосый закадроаый ""] coc900 Скачать
3 | 0
Фильмы 2019-2020 [DVDrip, WEB-DLRip, HDrip] (DUB, MVO) [ 1.46 GB ] Лови момент / Come se non ci fosse un domani [2019 WEB-DLRip] MVO bober100 Скачать
3 | 0
3D Фильмы [ 13.79 GB ] Сделай шаг: Лови момент 3Д / Make Your Move 3D [2013 музыка BDRip 1080p ] DUB bober100 Скачать
1 | 0
Наши новые фильмы 2018-2019 [ 1.37 GB ] Лови момент [2019 WEB-DLRip-AVC] bober100 Скачать
2 | 0
Наши новые фильмы 2018-2019 [ 1.37 GB ] Лови момент [2019 WEB-DLRip] bober100 Скачать
4 | 0
Наши фильмы (HD, WEB-DL 720p, 1080p) [ 2.64 GB ] Лови момент [2019 WEB-DL 1080p] bober100 Скачать
1 | 0

28-11-2019 20:33  

Отключить всю рекламу на сайте

    Дорогой пользователь! Огромная просьба, поблагодарите релизера, оцените раздачу и оставьте свои комментарий, если Вы скачали Лови момент через торрент бесплатно! Внесите свою лепту в развитие PiratBit!
    Комментировать посты могут только пользователи прошедшие не сложную регистрацию
    Показать сообщения:    

    Лови момент через торрент
    Скачать бесплатно Лови момент
    Лови момент скачать торрент
    Лови момент смотреть онлайн
    Cкачать фильм Лови момент бесплатно
    Лови момент скачать торрент в хорошем качестве
    Лови момент смотреть онлайн бесплатно в хорошем качестве


    Вы не можете начинать темы
    Вы не можете отвечать на сообщения
    Вы не можете редактировать свои сообщения
    Вы не можете удалять свои сообщения
    Вы не можете голосовать в опросах
    Вы не можете прикреплять файлы к сообщениям
    Вы можете скачивать файлы