Marvel's Avengers Deluxe Edition (супер цена) 159р. Внимание количество ограничено!!!

2 сезон

iTunes

iTunes

1

iTunes

iTunes

iTunes

WEBRip

iTunes

30
pack

Новость дня

ВАЖНО

!!Акция!!

Alien_RageХит недели

RePack

Horizon Zero Dawn

ИГРА 18+

pack

RePack

jed

!!Акция!!

Alien_Rage

RePack

fifa19

RePack

Assassins Creed: Odyssey

RePack

NEED FOR SPEED™ PAYBACK

4 сезон

9 сезон

Бесстыжие 9 сезон

Все сериалы

все сериалы на PB.wtf

RePack

FAR CRY 5
  

Ван Гоги (Сергей Ливнев) [2019, драма, WEB-DL 720p] [iTunes] piratbit.pw

Ван Гоги через торрент piratbit.pw

Размер: 3.03 GB | Добавлен: 1 год 5 мес. назад | Торрент скачан:107 раз
Скачать  

07-04-2019 09:10 Ван Гоги Скачать торрент  

Ван Гоги Год выпуска: 2019
Страна: Россия
Жанр: драма
Продолжительность: 01:38:34
Перевод: Не требуется | iTunes
Субтитры: отсутствуют

Режиссер: Сергей Ливнев

rating

В ролях:

Алексей Серебряков, Даниэль Ольбрыхский, Елена Коренева, Полина Агуреева, Наталья Негода, Александр Сирин, Светлана Немоляева, Ольга Остроумова, Ёла Санько, Евгений Ткачук

Описание:

Отец — прославленный дирижер. Сын — талантливый, но неизвестный художник. Их отношения давно превратились в любовь-ненависть, в которой больше ненависти, чем любви. Они живут на разных концах света и стараются не видеться без необходимости. Когда такая необходимость неожиданно возникает, самые близкие и одновременно далекие люди должны будут пройти непростой путь примирения.

Качество: WEB-DL 720p
Формат: MKV

Видео: MPEG-4 AVC, 3928 Кбит/с, 1280@960x720
Аудио: AC3, 6 ch, 384 Кбит/с
скриншот  скриншот  скриншот  скриншот  

Общее
Уникальный идентификатор : 233714106300774962322035811089808817755 (0xAFD3B317597E754C982019CD5E1AFE5B)
Полное имя : D:\Van gogi.2019.WEB-DL.720p.ELEKTRI4KA.UNIONGANG.mkv
Формат : Matroska
Версия формата : Version 2
Размер файла : 3,03 Гбайт
Продолжительность : 1 ч. 38 м.
Общий поток : 4399 Кбит/сек
Название фильма : Van gogi.2019.ELEKTRI4KA.UNIONGANG
Дата кодирования : UTC 2019-04-06 18:16:27
Программа кодирования : mkvmerge v7.8.0 ('River Man') 32bit built on Apr 3 2015 12:11:22
Библиотека кодирования : libebml v1.3.1 + libmatroska v1.4.2

Видео
Идентификатор : 2
Формат : AVC
Формат/Информация : Advanced Video Codec
Профиль формата : Main@L3.1
Параметр CABAC формата : Нет
Параметр RefFrames формата : 2 кадра
Идентификатор кодека : V_MPEG4/ISO/AVC
Продолжительность : 1 ч. 38 м.
Битрейт : 3928 Кбит/сек
Ширина : 960 пикселей
Высота : 720 пикселей
Соотношение сторон : 16:9
Режим частоты кадров : Постоянный
Частота кадров : 25,000 кадров/сек
Цветовое пространство : YUV
Субдискретизация насыщенности : 4:2:0
Битовая глубина : 8 бит
Тип развёртки : Прогрессивная
Бит/(Пиксели*Кадры) : 0.227
Размер потока : 2,70 Гбайт (89%)
Язык : English
Default : Да
Forced : Нет
Цветовой диапазон : Limited
Основные цвета : BT.709
Характеристики трансфера : BT.709
Коэффициенты матрицы : BT.709

Аудио
Идентификатор : 1
Формат : AC-3
Формат/Информация : Audio Coding 3
Расширение режима : CM (complete main)
Параметр Endianness формата : Big
Идентификатор кодека : A_AC3
Продолжительность : 1 ч. 38 м.
Вид битрейта : Постоянный
Битрейт : 384 Кбит/сек
Каналы : 6 каналов
Расположение каналов : Front: L C R, Side: L R, LFE
Частота : 48,0 КГц
Частота кадров : 31,250 кадров/сек (1536 spf)
Метод сжатия : С потерями
Размер потока : 271 Мбайт (9%)
Заголовок : itunes.ELEKTRI4KA.UNIONGANG
Язык : Russian
Default : Да
Forced : Нет

Меню
00:00:00.000 : en:Глава 1
00:08:00.800 : en:Глава 2
00:16:21.200 : en:Глава 3
00:25:05.599 : en:Глава 4
00:34:07.799 : en:Глава 5
00:43:04.879 : en:Глава 6
00:51:35.918 : en:Глава 7
00:59:52.638 : en:Глава 8
01:08:21.157 : en:Глава 9
01:16:28.316 : en:Глава 10
01:25:07.515 : en:Глава 11

piratbit.pw



Скачать Ван Гоги через торрент https://i5.imageban.ru/out/2019/04/07/970570d9d1ec0712db669488036f784e.png Скачать фильм Ван Гоги через торрент бесплантно в хорошем качестве Описание: Отец — прославленный дирижер. Сын — талантливый, но неизвестный художник. Их отношения давно превратились в любовь-ненависть, в ... 8.2 10 5
Торрент: Зарегистрирован [2019-04-07 09:10] · скачан: 107 раз
Статус: √ проверено
Размер: 3.03 GB
Как cкачать? Как скачать Ван Гоги через торрент | qTorrent

% Раздел Тема Автор DL S | L
Наши фильмы (HD, WEB-DL 720p, 1080p) [ 3.85 GB ] Ван Гоги [2019 WEB-DL 1080p] bober100 Скачать
3 | 0
Наши новые фильмы 2018-2019 [ 1.46 GB ] Ван Гоги [2019 WEB-DLRip] bober100 Скачать
1 | 0
Наши новые фильмы 2018-2019 [ 747 MB ] Ван Гоги [2019 WEB-DLRip] bober100 Скачать
1 | 0
Наши новые фильмы 2018-2019 [ 1.79 GB ] Ван Гоги [2019 WEB-DLRip-AVC] bober100 Скачать
1 | 0
Фильмы 2018 [DVDrip, WEB-DLRip, HDrip] (DUB, MVO) [ 1.42 GB ] Ван Го На пороге вечности / At Eternity's Gate [2018 биография BDRip] - Twi7ter Скачать
2 | 0
T Фильмы (WEB-DL 720p, 1080p) [ 3.96 GB ] Ван Го На пороге вечности / At Eternity's Gate [2018 биография WEB-DL 1080p] MVO [HDRezka Studio] sheker187 Скачать
1 | 0
Иностранные мультфильмы [ 1.46 GB ] Ван Го С любовью Винсент / Loving Vincent [2017 биография мультфильм HDRip] bober100 Скачать
1 | 0

28-11-2019 20:33  

Отключить всю рекламу на сайте

    Дорогой пользователь! Огромная просьба, поблагодарите релизера, оцените раздачу и оставьте свои комментарий, если Вы скачали Ван Гоги через торрент бесплатно! Внесите свою лепту в развитие PiratBit!
    Комментировать посты могут только пользователи прошедшие не сложную регистрацию
    Показать сообщения:    

    Ван Гоги через торрент
    Скачать бесплатно Ван Гоги
    Ван Гоги скачать торрент
    Ван Гоги смотреть онлайн
    Cкачать фильм Ван Гоги бесплатно
    Ван Гоги скачать торрент в хорошем качестве
    Ван Гоги смотреть онлайн бесплатно в хорошем качестве


    Вы не можете начинать темы
    Вы не можете отвечать на сообщения
    Вы не можете редактировать свои сообщения
    Вы не можете удалять свои сообщения
    Вы не можете голосовать в опросах
    Вы не можете прикреплять файлы к сообщениям
    Вы можете скачивать файлы