Marvel's Avengers Deluxe Edition (супер цена) 159р. Внимание количество ограничено!!!

2 сезон

iTunes

iTunes

1

iTunes

iTunes

iTunes

WEBRip

iTunes

30
pack

Новость дня

ВАЖНО

!!Акция!!

Alien_RageХит недели

RePack

Horizon Zero Dawn

ИГРА 18+

pack

RePack

jed

!!Акция!!

Alien_Rage

RePack

fifa19

RePack

Assassins Creed: Odyssey

RePack

NEED FOR SPEED™ PAYBACK

4 сезон

9 сезон

Бесстыжие 9 сезон

Все сериалы

все сериалы на PB.wtf

RePack

FAR CRY 5
  

Ральф / Wreck-It Ralph (Рич Мур) [2012, Мультфильм, комедия, приключения, семейный, UHD BDRemux 2160p] 2xAVO+DUB (rus, ukr) [Лицензия] piratbit.pw

Ральф через торрент piratbit.pw

Размер: 43.94 GB | Добавлен: 1 год 5 мес. назад | Торрент скачан:11 раз
Скачать  

06-04-2019 11:38 Ральф Скачать торрент  

Ральф / Wreck-It Ralph
Год выпуска: 2012
Страна: США
Жанр: Мультфильм, комедия, приключения, семейный
Продолжительность: 01:41:14
Перевод:

#1: Дублированный | Лицензия
#2: Авторский | Гаврилов
#3: Авторский | Сербин

Субтитры: Русские (Forced, full), украинские (Forced, full), английские

Режиссер: Рич Мур

rating

В ролях: Джон С. Райлли, Джек МакБрайер, Джейн Линч, Сара Силверман, Брэндон Т. Джексон, Стефани Скотт, Скотт Менвилль, Скайлар Эстин, Джек Эйнджел, Джеми Элман, Джералд С. Риверз

Описание: Ральф — второстепенный персонаж восьмибитовой компьютерной игры, и ему надоело находиться в тени главного героя, мастера на все руки Феликса, который всегда появляется, чтобы «исправить» ситуацию! После десяти лет добросовестной работы в роли злодея, в течение которых все похвалы выпадали на долю Феликса, Ральф больше не хочет быть плохим. Он решает отправиться в путешествие по аркадным играм разных жанров, чтобы доказать всем, что и он тоже может быть героем. На своем пути Ральф встречает героев разных игр — хладнокровную сержанта Калхун из игры Hero’s Duty, оберегающую планету от нашествия инопланетных захватчиков, и сладкую на вид, но острую на язычок Сластену фон Дю, чье существование в гоночном симуляторе Sugar Rush внезапно оказывается под угрозой. Наконец-то Ральфу выпадает шанс показать, что он умеет не только разрушать!

Качество: UHD BDRemux 2160p
Формат: MKV

Видео: MPEG-H HEVC HDR Video, 3840x2160, 49200 Kbit/s, 23.976 fps Звук:
Аудио#1: 48 kHz, AC3, 5.1, 640 Kbps | Лицензия | RUS |
Аудио#2: 48 kHz, DTS, 5.1, 1510 Kbps | Гаврилов | RUS |
Аудио#3: 48 kHz, DTS-HD MA, 7.1, 4795 Kbps | Сербин | RUS |
Аудио#4: 48 kHz, AC3, 5.1, 640 Kbps | Лицензия | UKR |
Аудио#5: 48 kHz, TrueHD, 5.1, 4598 Kbps | Оригинал | ENG |
Аудио#6: 48 kHz, AC3, 5.1, 640 Kbps | Оригинал | ENG |
скриншот  
скриншот  скриншот  скриншот  скриншот  скриншот  

General
Unique ID : 181971303957815378046093299090854106389 (0x88E665F907D2E9E94F860B2CC371D515)
Complete name : D:Video111Wreck-It.Ralph.2012.BDREMUX.2160p.HDR.seleZen.mkv
Format : Matroska
Format version : Version 4
File size : 43.9 GiB
Duration : 1 h 41 min
Overall bit rate mode : Variable
Overall bit rate : 62.1 Mb/s
Movie name : Wreck-It Ralph 2012 from селезень
Encoded date : UTC 2019-04-06 10:50:01
Writing application : mkvmerge v32.0.0 ('Astral Progressions') 64-bit
Writing library : libebml v1.3.7 + libmatroska v1.5.0

Video
ID : 1
Format : HEVC
Format/Info : High Efficiency Video Coding
Format profile : Main 10@L5.1@High
HDR format : SMPTE ST 2086, HDR10 compatible
Codec ID : V_MPEGH/ISO/HEVC
Duration : 1 h 41 min
Bit rate : 49.2 Mb/s
Width : 3 840 pixels
Height : 2 160 pixels
Display aspect ratio : 16:9
Frame rate mode : Constant
Frame rate : 23.976 (24000/1001) FPS
Color space : YUV
Chroma subsampling : 4:2:0 (Type 2)
Bit depth : 10 bits
Bits/(Pixel*Frame) : 0.248
Stream size : 34.8 GiB (79%)
Writing library : ATEME Titan File 3.8.16 (4.8.16.0)
Language : English
Default : Yes
Forced : No
Color range : Limited
Color primaries : BT.2020
Transfer characteristics : PQ
Matrix coefficients : BT.2020 non-constant
Mastering display color pri : Display P3
Mastering display luminance : min: 0.0001 cd/m2, max: 1000 cd/m2

Audio #1
ID : 2
Format : AC-3
Format/Info : Audio Coding 3
Commercial name : Dolby Digital
Codec ID : A_AC3
Duration : 1 h 41 min
Bit rate mode : Constant
Bit rate : 640 kb/s
Channel(s) : 6 channels
Channel layout : L R C LFE Ls Rs
Sampling rate : 48.0 kHz
Frame rate : 31.250 FPS (1536 SPF)
Bit depth : 16 bits
Compression mode : Lossy
Stream size : 463 MiB (1%)
Title : Dub [License]
Language : Russian
Service kind : Complete Main
Default : Yes
Forced : Yes

Audio #2
ID : 3
Format : DTS
Format/Info : Digital Theater Systems
Codec ID : A_DTS
Duration : 1 h 41 min
Bit rate mode : Constant
Bit rate : 1 509 kb/s
Channel(s) : 6 channels
Channel layout : C L R Ls Rs LFE
Sampling rate : 48.0 kHz
Frame rate : 93.750 FPS (512 SPF)
Bit depth : 24 bits
Compression mode : Lossy
Stream size : 1.07 GiB (2%)
Title : AVO [Gavrilov]
Language : Russian
Default : No
Forced : No

Audio #3
ID : 4
Format : DTS XLL
Format/Info : Digital Theater Systems
Commercial name : DTS-HD Master Audio
Codec ID : A_DTS
Duration : 1 h 41 min
Bit rate mode : Variable
Bit rate : 4 796 kb/s
Channel(s) : 8 channels
Channel layout : C L R LFE Lb Rb Lss Rss
Sampling rate : 48.0 kHz
Frame rate : 93.750 FPS (512 SPF)
Bit depth : 24 bits
Compression mode : Lossless
Stream size : 3.39 GiB (8%)
Title : AVO [Serbin]
Language : Russian
Default : No
Forced : No

Audio #4
ID : 5
Format : AC-3
Format/Info : Audio Coding 3
Commercial name : Dolby Digital
Codec ID : A_AC3
Duration : 1 h 41 min
Bit rate mode : Constant
Bit rate : 640 kb/s
Channel(s) : 6 channels
Channel layout : L R C LFE Ls Rs
Sampling rate : 48.0 kHz
Frame rate : 31.250 FPS (1536 SPF)
Bit depth : 16 bits
Compression mode : Lossy
Stream size : 463 MiB (1%)
Title : Dub [License]
Language : Ukrainian
Service kind : Complete Main
Default : No
Forced : No

Audio #5
ID : 6
Format : MLP FBA 16-ch
Format/Info : Meridian Lossless Packing FBA with 16-channel presentation
Commercial name : Dolby TrueHD with Dolby Atmos
Codec ID : A_TRUEHD
Duration : 1 h 41 min
Bit rate mode : Variable
Bit rate : 4 598 kb/s
Maximum bit rate : 5 742 kb/s
Channel(s) : 8 channels
Channel layout : L R C LFE Ls Rs Lb Rb
Sampling rate : 48.0 kHz
Frame rate : 1 200.000 FPS (40 SPF)
Compression mode : Lossless
Stream size : 3.25 GiB (7%)
Title : Original
Language : English
Default : No
Forced : No
Number of dynamic objects : 13
Bed channel count : 1 channel
Bed channel configuration : LFE

Audio #6
ID : 7
Format : AC-3
Format/Info : Audio Coding 3
Commercial name : Dolby Digital
Codec ID : A_AC3
Duration : 1 h 41 min
Bit rate mode : Constant
Bit rate : 640 kb/s
Channel(s) : 6 channels
Channel layout : L R C LFE Ls Rs
Sampling rate : 48.0 kHz
Frame rate : 31.250 FPS (1536 SPF)
Bit depth : 16 bits
Compression mode : Lossy
Stream size : 463 MiB (1%)
Language : English
Service kind : Complete Main
Default : No
Forced : No

Text #1
ID : 8
Format : UTF-8
Codec ID : S_TEXT/UTF8
Codec ID/Info : UTF-8 Plain Text
Duration : 1 h 34 min
Bit rate : 1 b/s
Count of elements : 39
Stream size : 1.23 KiB (0%)
Title : Forced
Language : Russian
Default : Yes
Forced : Yes

Text #2
ID : 9
Format : UTF-8
Codec ID : S_TEXT/UTF8
Codec ID/Info : UTF-8 Plain Text
Duration : 1 h 34 min
Bit rate : 111 b/s
Count of elements : 1329
Stream size : 76.8 KiB (0%)
Title : Full
Language : Russian
Default : No
Forced : No

Text #3
ID : 10
Format : UTF-8
Codec ID : S_TEXT/UTF8
Codec ID/Info : UTF-8 Plain Text
Duration : 1 h 34 min
Bit rate : 2 b/s
Count of elements : 47
Stream size : 1.45 KiB (0%)
Title : Forced
Language : Ukrainian
Default : No
Forced : No

Text #4
ID : 11
Format : UTF-8
Codec ID : S_TEXT/UTF8
Codec ID/Info : UTF-8 Plain Text
Duration : 1 h 34 min
Bit rate : 108 b/s
Count of elements : 1560
Stream size : 74.7 KiB (0%)
Title : Full
Language : Ukrainian
Default : No
Forced : No

Text #5
ID : 12
Format : UTF-8
Codec ID : S_TEXT/UTF8
Codec ID/Info : UTF-8 Plain Text
Duration : 1 h 40 min
Bit rate : 66 b/s
Count of elements : 1565
Stream size : 48.6 KiB (0%)
Title : Full
Language : English
Default : No
Forced : No

Text #6
ID : 13
Format : UTF-8
Codec ID : S_TEXT/UTF8
Codec ID/Info : UTF-8 Plain Text
Duration : 1 h 40 min
Bit rate : 74 b/s
Count of elements : 1874
Stream size : 54.5 KiB (0%)
Title : SDH
Language : English
Default : No
Forced : No

Menu
00:00:00.000 : en:Wreck-It Ralph
00:07:12.890 : en:30 Years
00:16:35.744 : en:Hero's Duty
00:27:07.959 : en:Sugar Rush
00:37:26.577 : en:The Glitch
00:44:47.518 : en:Going Turbo
00:48:45.964 : en:Making A Car
00:51:36.510 : en:Driving Lessons
00:58:56.866 : en:King Candy's Secret
01:09:08.561 : en:Out Of Order
01:13:40.165 : en:Every Day Of My Life
01:15:57.636 : en:The Race
01:18:53.812 : en:Cy-Bug Invasion
01:21:54.576 : en:Can't Leave The Game
01:27:26.199 : en:One Game At A Time
01:33:11.043 : en:End Credits

piratbit.pw



Скачать Ральф через торрент http://img14.lostpic.net/2019/04/06/18e1d4536da981311b68480910b6b2fc.jpg Скачать фильм Ральф через торрент бесплантно в хорошем качестве Описание: Ральф — второстепенный персонаж восьмибитовой компьютерной игры, и ему надоело находиться в тени главного героя, мастера на все ... 10 10 3
Торрент: Зарегистрирован [2019-04-06 11:38] · скачан: 11 раз
Статус: √ проверено
Размер: 43.94 GB
Как cкачать? Как скачать Ральф через торрент | qTorrent

% Раздел Тема Автор DL S | L
Ultra HD (UHD: 2K, 4K, 8K) [ 45.08 GB ] Ральф / Wreck-It Ralph [2012 мультфильм UHD BDRemux 2160p] DUB + AVO [Ю. Сербин] sheker187 Скачать
1 | 0
Зарубежные Мультфильмы (BDRip 1080p, 720p, Blu-ray, BD-Remux) [ 5.26 GB ] Ральф / Wreck-It Ralph [2012 мультфильм BDRip 1080p HEVC ] Мичман37 Скачать
2 | 0
Иностранные мультфильмы [ 3.46 GB ] Ральф / Wreck-It Ralph [2012 BDRip-AVC] [Локализованный видеоряд] + 2x[AVO] + Dub killermax2013 Скачать
1 | 0
Мультфильмы (48-60 fps) [ 3.76 GB ] Ральф / Wreck-It Ralph [2012 мультфильм BDRip 720p] [60 FPS] killermax2013 Скачать
2 | 0
Иностранные мультфильмы [ 2.05 GB ] Ральф / Wreck-It Ralph [2012 мультфильм HDRip] [AVO] + [AVO] killermax2013 Скачать
1 | 0
Иностранные мультфильмы [ 1.46 GB ] Ральф / Wreck-It Ralph [2012 мультфильм HDRip DUB лицензия] oleg8 Скачать
2 | 0
3D Мультфильмы [ 3.57 GB ] Ральф в 3D / Wreck-It Ralph in 3D [2012 мультфильм BDRip-AVC DUB + Оригинал] Anaglyph red'cyan slaventi-69 Скачать
1 | 0

28-11-2019 20:33  

Отключить всю рекламу на сайте

06-04-2019 16:04 Ральф Скачать торрент  

Друган,вот его надо в 3D!piratbit.pw



    Дорогой пользователь! Огромная просьба, поблагодарите релизера, оцените раздачу и оставьте свои комментарий, если Вы скачали Ральф через торрент бесплатно! Внесите свою лепту в развитие PiratBit!
    Комментировать посты могут только пользователи прошедшие не сложную регистрацию
    Показать сообщения:    

    Ральф через торрент
    Скачать бесплатно Ральф
    Ральф скачать торрент
    Ральф смотреть онлайн
    Cкачать фильм Ральф бесплатно
    Ральф скачать торрент в хорошем качестве
    Ральф смотреть онлайн бесплатно в хорошем качестве


    Вы не можете начинать темы
    Вы не можете отвечать на сообщения
    Вы не можете редактировать свои сообщения
    Вы не можете удалять свои сообщения
    Вы не можете голосовать в опросах
    Вы не можете прикреплять файлы к сообщениям
    Вы можете скачивать файлы