Marvel's Avengers Deluxe Edition (супер цена) 159р. Внимание количество ограничено!!!

2 сезон

iTunes

iTunes

1

iTunes

iTunes

iTunes

WEBRip

iTunes

30
pack

Новость дня

ВАЖНО

!!Акция!!

Alien_RageХит недели

RePack

Horizon Zero Dawn

ИГРА 18+

pack

RePack

jed

!!Акция!!

Alien_Rage

RePack

fifa19

RePack

Assassins Creed: Odyssey

RePack

NEED FOR SPEED™ PAYBACK

4 сезон

9 сезон

Бесстыжие 9 сезон

Все сериалы

все сериалы на PB.wtf

RePack

FAR CRY 5
  

Гринч / The Grinch (Ярроу Чейни, Скотт Моужер) [2018, мультфильм, фэнтези, комедия, семейный, UHD BDRemux 2160p] [Dolby Vision TV] DUB [Лицензия] piratbit.pw

Гринч через торрент piratbit.pw

Размер: 41.21 GB | Добавлен: 1 год 5 мес. назад | Торрент скачан:9 раз
Скачать  

05-04-2019 23:05 Гринч Скачать торрент  

Гринч / The Grinch
Год выпуска: 2018
Страна: Китай, США
Жанр: мультфильм, фэнтези, комедия, семейный
Продолжительность: 01:25:49
Перевод: Дублированный | Лицензия
Субтитры: Русские (Forced)

Режиссер: Ярроу Чейни, Скотт Моужер

rating

В ролях:

Бенедикт Камбербэтч (The Grinch, озвучка), Кэмерон Сили (Cindy-Lou Who, озвучка), Рашида Джонс (Donna Who, озвучка), Фаррелл Уильямс (рассказчик, озвучка), Тристан О’Хэйр (Groopert, озвучка), Кенан Томпсон (Mr. Bricklebaum, озвучка), Сэм Лаваньино (Ozzy, озвучка), Рамон Хэмилтон (Axl, озвучка), Анджела Лэнсбери (Mayor McGerkle, озвучка), Скарлетт Эстевес (Izzy, озвучка), Майкл Битти (Store Clerk, озвучка), Лори Алан (дополнительные голоса, озвучка)
Описание:

Любой бы на месте Гринча позеленел и взбесился. Как порядочный интроверт, он живёт в тёмной пещере на самой вершине горы подальше ото всех, но эти «все» готовят грандиознейшее празднование нового года. Они шумят, всё украшают и дико бесят. Кто бы отказал себе в удовольствии испортить праздник? Гринч решает украсть Новый год.

Качество: UHD BDRemux 2160p | Dolby Vision TV
Формат: MP4

Видео: HEVC HDR, 60.6 Mбит/с, 3840x2160, 23.976 кадр/с
Аудио: Russian / Dolby Digital Audio / 5.1 / 48 kHz / 640 kbps / DN -26dB
|
Данный вид релизов (контейнер MP4) предназначен для встроенного в ТВ (соответственно, с поддержкой DV) плеер.
Т.Е. Можно использовать как USB flash/HDD, так и DLNA / Plex - подобные сервисы/программы. дополнительный-внешний плеер не обязателен.

Внимание!
На моделях LG 2016 возможны сюрпризы "через раз", 2017-2018 должно идти без сюрпризов )
скриншот  скриншот  скриншот  скриншот  скриншот  

Общее
Полное имя : The.Grinch.2018.UHD.BDRemux.2160p.DV.IVA.RUS.ExKinoRay.mp4
Формат : MPEG-4
Профиль формата : Base Media / Version 2
Идентификатор кодека : mp42 (mp42/iso6/isom/msdh/dby1)
Размер файла : 41,2 Гбайт
Продолжительность : 1 ч. 25 м.
Общий поток : 68,7 Мбит/сек
Дата кодирования : UTC 2019-04-05 20:56:27
Дата пометки : UTC 2019-04-05 20:56:27

Видео #1
Идентификатор : 1
Формат : HEVC
Формат/Информация : High Efficiency Video Coding
Коммерческое название : HDR10
Профиль формата : Main 10@L5.1@High
Идентификатор кодека : hev1
Идентификатор кодека/Информация : High Efficiency Video Coding
Продолжительность : 1 ч. 25 м.
Битрейт : 60,5 Мбит/сек
Ширина : 3840 пикселей
Высота : 2160 пикселей
Соотношение сторон : 16:9
Режим частоты кадров : Постоянный
Частота кадров : 23,976 (24000/1001) кадра/сек
Цветовое пространство : YUV
Субдискретизация насыщенности : 4:2:0 (Type 2)
Битовая глубина : 10 бит
Бит/(Пиксели*Кадры) : 0.304
Размер потока : 36,3 Гбайт (88%)
Default : Нет
Дата кодирования : UTC 2019-04-05 20:56:27
Дата пометки : UTC 2019-04-05 20:56:27
Цветовой диапазон : Limited
Основные цвета : BT.2020
Характеристики трансфера : PQ
Коэффициенты матрицы : BT.2020 non-constant
MasteringDisplay_ColorPrimaries : Display P3
MasteringDisplay_Luminance : min: 0.0001 cd/m2, max: 1000 cd/m2
MaxCLL : 1000 cd/m2
MaxFALL : 407 cd/m2
Codec configuration box : hvcC

Видео #2
Идентификатор : 2
Формат : HEVC
Формат/Информация : High Efficiency Video Coding
Коммерческое название : HDR10
Профиль формата : Main 10@L5.1@High
Dolby Vision : 1.0, dvhe.07.06, EL+RPU
Идентификатор кодека : dvhe
Идентификатор кодека/Информация : High Efficiency Video Coding with Dolby Vision
Продолжительность : 1 ч. 25 м.
Битрейт : 7569 Кбит/сек
Ширина : 1920 пикселей
Высота : 1080 пикселей
Соотношение сторон : 16:9
Режим частоты кадров : Постоянный
Частота кадров : 23,976 (24000/1001) кадра/сек
Цветовое пространство : YUV
Субдискретизация насыщенности : 4:2:0 (Type 2)
Битовая глубина : 10 бит
Бит/(Пиксели*Кадры) : 0.152
Размер потока : 4,54 Гбайт (11%)
Default : Нет
Дата кодирования : UTC 2019-04-05 20:56:27
Дата пометки : UTC 2019-04-05 20:56:27
Цветовой диапазон : Limited
Основные цвета : BT.2020
Характеристики трансфера : PQ
Коэффициенты матрицы : BT.2020 non-constant
MasteringDisplay_ColorPrimaries : Display P3
MasteringDisplay_Luminance : min: 0.0001 cd/m2, max: 1000 cd/m2
Codec configuration box : hvcC+dvcC

Аудио
Идентификатор : 3
Формат : AC-3
Формат/Информация : Audio Coding 3
Коммерческое название : Dolby Digital
Идентификатор кодека : ac-3
Продолжительность : 1 ч. 25 м.
Вид битрейта : Постоянный
Битрейт : 640 Кбит/сек
Каналы : 6 каналов
Channel layout : L R C LFE Ls Rs
Частота : 48,0 КГц
Частота кадров : 31,250 кадров/сек (1536 SPF)
Битовая глубина : 16 бит
Метод сжатия : С потерями
Размер потока : 393 Мбайт (1%)
Язык : Russian
ServiceKind : Complete Main
Default : Нет
Дата кодирования : UTC 2019-04-05 20:56:27
Дата пометки : UTC 2019-04-05 20:56:27

piratbit.pw



Скачать Гринч через торрент https://a.radikal.ru/a15/1804/77/25bd8085c8d9.png Скачать фильм Гринч через торрент бесплантно в хорошем качестве Описание: Любой бы на месте Гринча позеленел и взбесился. Как порядочный интроверт, он живёт в тёмной пещере на самой вершине горы подальше ... 10 10 2
Торрент: Зарегистрирован [2019-04-05 23:05] · скачан: 9 раз
Статус: √ проверено
Размер: 41.21 GB
Как cкачать? Как скачать Гринч через торрент | qTorrent

% Раздел Тема Автор DL S | L
3D Мультфильмы [ 5.46 GB ] Гринч в 3D / The Grinch in 3D [2018 мультфильм BDRip 1080p BD CEE] Анаглиф slaventi-69 Скачать
1 | 0
Мультфильмы (48-60 fps) [ 19.63 GB ] Гринч / The Grinch [2018 мультфильм BDRip 1080p 60 fps] sheker187 Скачать
1 | 0
Ultra HD (UHD: 2K, 4K, 8K) [ 81.39 GB ] Гринч / The Grinch [2018 мультфильм UHD Blu-Ray EUR 2160p] [Dolby Vision] DUB [] bober100 Скачать
1 | 0
3D Мультфильмы [ 5.56 GB ] Гринч 3Д / The Grinch 3D [2018 мультфильм BDRip 1080p] [Half OverUnder / Вертикальная анаморфная стереопара] DUB [] bober100 Скачать
1 | 0
Ultra HD (UHD: 2K, 4K, 8K) [ 10.24 GB ] Гринч / The Grinch [2018 мультфильм UHD BDRip 2160p] [SDR] DUB [] + 2xMVO sheker187 Скачать
2 | 0
Ultra HD (UHD: 2K, 4K, 8K) [ 8.1 GB ] Гринч / The Grinch [2018 мультфильм UHD BDRip 2160p] DUB [] + 2xMVO sheker187 Скачать
4 | 0
Иностранные мультфильмы [ 1.82 GB ] Гринч / The Grinch [2018 мультфильм BDRip-AVC] - ExKinoRay Enigma2010 Скачать
2 | 0

28-11-2019 20:33  

Отключить всю рекламу на сайте

    Дорогой пользователь! Огромная просьба, поблагодарите релизера, оцените раздачу и оставьте свои комментарий, если Вы скачали Гринч через торрент бесплатно! Внесите свою лепту в развитие PiratBit!
    Комментировать посты могут только пользователи прошедшие не сложную регистрацию
    Показать сообщения:    

    Гринч через торрент
    Скачать бесплатно Гринч
    Гринч скачать торрент
    Гринч смотреть онлайн
    Cкачать фильм Гринч бесплатно
    Гринч скачать торрент в хорошем качестве
    Гринч смотреть онлайн бесплатно в хорошем качестве


    Вы не можете начинать темы
    Вы не можете отвечать на сообщения
    Вы не можете редактировать свои сообщения
    Вы не можете удалять свои сообщения
    Вы не можете голосовать в опросах
    Вы не можете прикреплять файлы к сообщениям
    Вы можете скачивать файлы