1 сезон

1 сезон

iTunes

1

КиноПоиск HD

Кинопоиск HD

iTunes

13

1 сезон

RePack

30

Ultimate

ВАЖНО

ИГРА 18+

pack

RePack

MK11
pack

Легкие деньги

RePack

jed

RePack

fifa19

RePack

RDR2

RePack

NEED FOR SPEED™ PAYBACK

4 сезон

9 сезон

Бесстыжие 9 сезон

Все сериалы

все сериалы на PB.wtf

RePack

FAR CRY 5
  
Magnet ссылка

Время монстров / The Head Hunter (Джордан Дауни) [2018, Ужасы, фэнтези, WEB-DL 1080p] AVO [BadBajo] piratbit.pw

Время монстров через торрент piratbit.pw

Размер: 2.94 GB | Добавлен: 2 года назад | Торрент скачан:62 раза
Скачать  

05-04-2019 20:00 Время монстров Скачать торрент  

Время монстров / The Head Hunter Год выпуска: 2018
Страна: США
Жанр: Ужасы, фэнтези
Продолжительность: 01:11:57
Перевод: Авторский (одноголосый) l
Субтитры: Английские (отключаемые)

Режиссер: Джордан Дауни

rating


В ролях:

Кристофер Рай, Кора Кауфман

Описание:

Средневековый воин живёт отшельником в мрачном лесу и жаждет отомстить смертельно опасному существу за гибель своей единственной дочери. Получая от короля сведения о появляющихся в округе монстрах, он отправляется за их головами, каждый раз надеясь, что встретит своего заклятого врага.

Качество: WEB-DL 1080p
Формат: MKV

Видео: 1920х1080, ~5088 Kbps, 23.976 (24000/1001) FPS
Аудио#1: AC3, 6 ch, 384 Kbps (BadBajo)
Аудио#2: AC3, 6 ch, 384 Kbps
скриншот  скриншот  скриншот  скриншот  скриншот  

Общее
Уникальный идентификатор : 41903452143626980433519323110157734394 (0x1F864FB309DBD8A5FD18AB7CA73E51FA)
Полное имя : D:\The Head Hunter.2019.1080p.WEB-DL.H264.AC3_rus_BadBajo.mkv
Формат : Matroska
Версия формата : Version 4 / Version 2
Размер файла : 2,94 Гбайт
Продолжительность : 1 ч. 11 м.
Общий поток : 5858 Кбит/сек
Название фильма : The Head Hunter.2019.1080p.WEB-DL.H264.AC3_rus_BadBajo
Дата кодирования : UTC 2019-04-05 07:58:48
Программа кодирования : mkvmerge v20.0.0 ('I Am The Sun') 64-bit
Библиотека кодирования : libebml v1.3.5 + libmatroska v1.4.8
Обложка : Yes
Attachments : cover.jpg

Видео
Идентификатор : 1
Формат : AVC
Формат/Информация : Advanced Video Codec
Профиль формата : High@L4
Параметр CABAC формата : Да
Параметр RefFrames формата : 4 кадра
Идентификатор кодека : V_MPEG4/ISO/AVC
Продолжительность : 1 ч. 11 м.
Битрейт : 5088 Кбит/сек
Ширина : 1920 пикселей
Высота : 1080 пикселей
Соотношение сторон : 16:9
Режим частоты кадров : Постоянный
Частота кадров : 23,976 (24000/1001) кадра/сек
Цветовое пространство : YUV
Субдискретизация насыщенности : 4:2:0
Битовая глубина : 8 бит
Тип развёртки : Прогрессивная
Бит/(Пиксели*Кадры) : 0.100
Размер потока : 2,50 Гбайт (85%)
Заголовок : The Head Hunter.2019.1080p
Язык : English
Default : Да
Forced : Нет
Цветовой диапазон : Limited
Основные цвета : BT.709
Характеристики трансфера : BT.709
Коэффициенты матрицы : BT.709

Аудио #1
Идентификатор : 2
Формат : AC-3
Формат/Информация : Audio Coding 3
Расширение режима : CM (complete main)
Параметр Endianness формата : Big
Идентификатор кодека : A_AC3
Продолжительность : 1 ч. 11 м.
Вид битрейта : Постоянный
Битрейт : 384 Кбит/сек
Каналы : 6 каналов
Расположение каналов : Front: L C R, Side: L R, LFE
Частота : 48,0 КГц
Частота кадров : 31,250 кадров/сек (1536 spf)
Метод сжатия : С потерями
Задержка видео : -42 мс.
Размер потока : 198 Мбайт (7%)
Заголовок : The Head Hunter.2019_rus_BadBajo
Язык : Russian
Default : Да
Forced : Да

Аудио #2
Идентификатор : 3
Формат : AC-3
Формат/Информация : Audio Coding 3
Расширение режима : CM (complete main)
Параметр Endianness формата : Big
Идентификатор кодека : A_AC3
Продолжительность : 1 ч. 11 м.
Вид битрейта : Постоянный
Битрейт : 384 Кбит/сек
Каналы : 6 каналов
Расположение каналов : Front: L C R, Side: L R, LFE
Частота : 48,0 КГц
Частота кадров : 31,250 кадров/сек (1536 spf)
Метод сжатия : С потерями
Задержка видео : -42 мс.
Размер потока : 198 Мбайт (7%)
Заголовок : The Head Hunter.2019_eng
Язык : English
Default : Нет
Forced : Нет

Текст
Идентификатор : 4
Формат : UTF-8
Идентификатор кодека : S_TEXT/UTF8
Идентификатор кодека/Информация : UTF-8 Plain Text
Заголовок : The Head Hunter.2019_eng
Язык : English
Default : Нет
Forced : Нет

Меню
00:00:00.000 : en:1
00:06:15.000 : en:2
00:14:16.000 : en:3
00:21:14.000 : en:4
00:28:07.000 : en:5
00:33:52.000 : en:6
00:40:57.000 : en:7
00:46:34.000 : en:8
00:53:20.000 : en:9
00:58:19.000 : en:10
01:04:41.000 : en:11
01:08:08.000 : en:12

piratbit.pw



Скачать Время монстров через торрент https://d.radikal.ru/d38/1904/00/84d17aac3d1f.jpg Скачать фильм Время монстров через торрент бесплантно в хорошем качестве Описание: Средневековый воин живёт отшельником в мрачном лесу и жаждет отомстить смертельно опасному существу за гибель своей единственной ... 10 10 4
Торрент: Зарегистрирован [2019-04-05 20:00] · скачан: 62 раз
Статус: √ проверено
Размер: 2.94 GB
Как cкачать? Как скачать Время монстров через торрент | UTorrent

% Раздел Тема Автор DL S | L
Фильмы 2018 [DVDrip, WEB-DLRip, HDrip] (DUB, MVO) [ 1.43 GB ] Время монстров / The Head Hunter [2018 BDRip] - Twi7ter Скачать
8 | 0
T Фильмы 2018 [DVDrip, WEB-DLRip, HDrip] (DUB, MVO) [ 1.32 GB ] Время монстров / The Head Hunter [2018 BDRip-AVC] MVO [HDRezka Studio] - ExKinoRay Enigma2010 Скачать
2 | 0
Фильмы [HD 720p, 1080p] (Хороший звук DUB, MVO) [ 4.06 GB ] Время монстров / The Head Hunter [2018 BDRip 720p] bober100 Скачать
1 | 0
Фильмы 2018 [DVDrip, WEB-DLRip, HDrip] (DUB, MVO) [ 1.09 GB ] Время монстров / The Head Hunter [2018 BDRip] bober100 Скачать
1 | 0
Фильмы [HD 720p, 1080p] (Хороший звук DUB, MVO) [ 7.4 GB ] Время монстров / The Head Hunter [2018 BDRip 1080p] bober100 Скачать
1 | 0
Фильмы (Blu-ray, BD-Remux, HDDVD) [ 16.37 GB ] Время монстров / The Head Hunter [2018 BD Remux 1080p] bober100 Скачать
1 | 0
Фильмы с авторской озвучкой [ 1.46 GB ] Время монстров / The Head Hunter [2018 WEB-DLRip] AVO [BadBajo] bober100 Скачать
1 | 0

28-11-2019 20:33  

Отключить всю рекламу на сайте

05-06-2019 01:36 Время монстров Скачать торрент  

моно и на английском смотреть если его и не знаеш за весь фильм раза 3 что то болтает там сам с собой)) не рекомендую тратить время на это бюджет рублей 100 не больше))piratbit.pw



    Дорогой пользователь! Огромная просьба, поблагодарите релизера, оцените раздачу и оставьте свои комментарий, если Вы скачали Время монстров через торрент бесплатно! Внесите свою лепту в развитие PiratBit!
    Комментировать посты могут только пользователи прошедшие не сложную регистрацию
    Показать сообщения:    

    Время монстров через торрент
    Скачать бесплатно Время монстров
    Время монстров скачать торрент
    Время монстров смотреть онлайн
    Cкачать фильм Время монстров бесплатно
    Время монстров скачать торрент в хорошем качестве
    Время монстров смотреть онлайн бесплатно в хорошем качестве


    Вы не можете начинать темы
    Вы не можете отвечать на сообщения
    Вы не можете редактировать свои сообщения
    Вы не можете удалять свои сообщения
    Вы не можете голосовать в опросах
    Вы не можете прикреплять файлы к сообщениям
    Вы можете скачивать файлы