Marvel's Avengers Deluxe Edition (супер цена) 159р. Внимание количество ограничено!!!

2 сезон

iTunes

iTunes

1

iTunes

iTunes

iTunes

WEBRip

iTunes

30
pack

Новость дня

ВАЖНО

!!Акция!!

Alien_RageХит недели

RePack

Horizon Zero Dawn

ИГРА 18+

pack

RePack

jed

!!Акция!!

Alien_Rage

RePack

fifa19

RePack

Assassins Creed: Odyssey

RePack

NEED FOR SPEED™ PAYBACK

4 сезон

9 сезон

Бесстыжие 9 сезон

Все сериалы

все сериалы на PB.wtf

RePack

FAR CRY 5
  

Сенсор (Андрей Загидуллин) [2019, Триллер, HDTV 1080i] piratbit.pw

Сенсор через торрент piratbit.pw

Размер: 5.5 GB | Добавлен: 1 год 5 мес. назад | Торрент скачан:117 раз
Скачать  

05-04-2019 19:26 Сенсор Скачать торрент  

Сенсор Год выпуска: 2019
Страна: Россия
Жанр: Триллер
Продолжительность: 01:42:00
Перевод: Не требуется
Субтитры: отсутствуют

Режиссер: Андрей Загидуллин



В ролях:

Евгений Михеев, Марина Курочка, Олег Васильков, Александр Мохов

Описание:

Максим обладает не очень приятной способностью — он чувствует боль других людей как свою собственную. С такой особенностью Макс вырос замкнутым, одиноким, стеснительным парнем. Единственная его радость — соседская девушка, Лена. Макс давно влюблен в нее, но все не решается подойти и познакомиться. В один из дней на Лену нападает жестокий маньяк. Макс, который в это время оказался рядом, хочет прийти на помощь, но не может — его перекрывает от боли, которую маньяк причиняет Лене. Единственное, что у Макса получается сделать, — вызвать полицию. Благодаря этому маньяк не успевает завершить начатое, и Лена остается жива. Но теперь она находится в больнице, сильно травмированная и напуганная. Макс решает найти маньяка с помощью своей способности — ведь он, словно радар, может почувствовать сильную боль, которую маньяк причиняет своим жертвам. Для поисков Макс объединяется с отставным следователем Савельевым. Несколько лет назад именно Савельев связал жестокие нападения на девушек в серию, но ему никто не поверил, и настырного Савельева с его одержимостью «несуществующими маньяками» выгнали из органов.

Качество: HDTV 1080i
Формат: TS

Видео: MPEG4 AVC Video, H264, 16:9, 1920x1080, 25 fps, 7866 kbps
Аудио: Russian: MP2, 2 ch, 192 kbps, 16 bits, 48.0 KHz
скриншот  скриншот  скриншот  скриншот  скриншот  

General
ID : 1 (0x1)
Complete name : D:Sensor.2019.HDTV.1080i.ts
Format : MPEG-TS
File size : 5.50 GiB
Duration : 1 h 32 min
Overall bit rate mode : Variable
Overall bit rate : 8 479 kb/s

Video
ID : 5031 (0x13A7)
Menu ID : 1380 (0x564)
Format : AVC
Format/Info : Advanced Video Codec
Format profile : High@L4
Format settings : CABAC / 4 Ref Frames
Format settings, CABAC : Yes
Format settings, ReFrames : 4 frames
Codec ID : 27
Duration : 1 h 32 min
Bit rate : 7 866 kb/s
Width : 1 920 pixels
Height : 1 080 pixels
Display aspect ratio : 16:9
Frame rate : 25.000 FPS
Color space : YUV
Chroma subsampling : 4:2:0
Bit depth : 8 bits
Scan type : MBAFF
Scan type, store method : Interleaved fields
Scan order : Top Field First
Bits/(Pixel*Frame) : 0.152
Stream size : 5.10 GiB (93%)

Audio
ID : 5032 (0x13A8)
Menu ID : 1380 (0x564)
Format : MPEG Audio
Format version : Version 1
Format profile : Layer 2
Format settings : Joint stereo / Intensity Stereo + MS Stereo
Codec ID : 3
Duration : 1 h 32 min
Bit rate mode : Constant
Bit rate : 192 kb/s
Channel(s) : 2 channels
Sampling rate : 48.0 kHz
Frame rate : 41.667 FPS (1152 SPF)
Compression mode : Lossy
Delay relative to video : -160 ms
Stream size : 127 MiB (2%)
Language : Russian

piratbit.pw



Скачать Сенсор через торрент http://img16.lostpic.net/2019/04/05/b0cf3dfbd6d55130eaafa3ec46566724.jpg Скачать фильм Сенсор через торрент бесплантно в хорошем качестве Описание: Максим обладает не очень приятной способностью — он чувствует боль других людей как свою собственную. С такой особенностью Макс ... 10 10 4
Торрент: Зарегистрирован [2019-04-05 19:26] · скачан: 117 раз
Статус: √ проверено
Размер: 5.5 GB
Как cкачать? Как скачать Сенсор через торрент | qTorrent

% Раздел Тема Автор DL S | L
Наши новые фильмы 2018-2019 [ 1.37 GB ] Сенсор [2019 SATRip] bober100 Скачать
1 | 0
Игры для КПК [ 253 MB ] игры для сенсорного телефона 2012 [ПираткаENG/RUигры для сенсорных телефонов] zheka01 Скачать
1 | 0
Игры для мобильных [ 153 MB ] Сборник игр и приложений для сенсорных телефонов [ПираткаENG/RUразные] Ubik1 Скачать
1 | 0
Игры для мобильных [ 36 MB ] Сборник игр и приложений для сенсорных телефонов [ПираткаENG/RU] Ubik1 Скачать
1 | 0

28-11-2019 20:33  

Отключить всю рекламу на сайте

    Дорогой пользователь! Огромная просьба, поблагодарите релизера, оцените раздачу и оставьте свои комментарий, если Вы скачали Сенсор через торрент бесплатно! Внесите свою лепту в развитие PiratBit!
    Комментировать посты могут только пользователи прошедшие не сложную регистрацию
    Показать сообщения:    

    Сенсор через торрент
    Скачать бесплатно Сенсор
    Сенсор скачать торрент
    Сенсор смотреть онлайн
    Cкачать фильм Сенсор бесплатно
    Сенсор скачать торрент в хорошем качестве
    Сенсор смотреть онлайн бесплатно в хорошем качестве


    Вы не можете начинать темы
    Вы не можете отвечать на сообщения
    Вы не можете редактировать свои сообщения
    Вы не можете удалять свои сообщения
    Вы не можете голосовать в опросах
    Вы не можете прикреплять файлы к сообщениям
    Вы можете скачивать файлы