1 сезон

1 сезон

iTunes

1

КиноПоиск HD

Кинопоиск HD

iTunes

13

1 сезон

RePack

30

Новинка

ВАЖНО

ИГРА 18+

pack

RePack

MK11
pack

Легкие деньги

RePack

jed

RePack

fifa19

RePack

RDR2

RePack

NEED FOR SPEED™ PAYBACK

4 сезон

9 сезон

Бесстыжие 9 сезон

Все сериалы

все сериалы на PB.wtf

RePack

FAR CRY 5
  
Magnet ссылка

Смерть - моё ремесло / Aus einem deutschen Leben (Теодор Котулла) [1977, драма, биография, BDRip 720p by msltel] AVO piratbit.pw

Смерть - моё ремесло через торрент piratbit.pw

Размер: 5.57 GB | Добавлен: 2 года назад | Торрент скачан:4 раза
Скачать  

03-04-2019 06:15 Смерть - моё ремесло Скачать торрент  

Название: Смерть – моё ремесло
Оригинальное название: Aus einem deutschen Leben
Год выпуска: 1977
Страна: Германия (ФРГ)
Жанр: драма, биография
Продолжительность: 02:24:50
Перевод: авторский

Режиссер: Теодор Котулла
В ролях: Гёц Георге, Элизабет Шварц, Курт Хюбнер, Ханс Корте, Маттиас Фукс, Кай Ташнер, Сигурд Фицек, Петер Франке, Вильфрид Эльсте, Клаус-Дитер Реентс, Герман Гюнтер, Петер Петран, Вернер Айкхорн, Петер Моланд, Ганс Шульце, Клаус Энскат, Клаус Фукс, Приске Хефлих, Бригитте Яннер, Дитрих Керки, Манфред Мюллер

О фильме: Фильм рассказывает о жизни оберштурмбанфюрера Рудольфа Ланга — начальника, основателя и коменданта лагеря смерти «Освенцим-Биркенау». Фильм снят по одноимённому роману французского писателя Робера Мерля (1952).



Качество: BDRip 720p
Формат: MKV
Видео: MPEG-4 AVC, 5124 Кбит/с, 9880x720, 24 Кадр/с
Аудио 1: русский, AC3, 192 kbps, 2 ch, 48 kHz [авторский, Юрий Живов]
Аудио 2: немецкий, AC3, 192 kbps, 2 ch, 48 kHz [оригинал]
Главы/чаптеры
Общее
Уникальный идентификатор : 255207010324068258509732376694859493258 (0xBFFF1512ED89A3D2BB4466B855F3EF8A)
Полное имя : D:\Video\Смерть - моё ремесло.1977.BDRip 720p by msltel.mkv
Формат : Matroska
Версия формата : Version 4
Размер файла : 5,57 Гбайт
Продолжительность : 2 ч. 24 м.
Общий поток : 5510 Кбит/сек
Название фильма : Rip by msltel
Дата кодирования : UTC 2019-04-02 13:03:06
Программа кодирования : mkvmerge v8.2.0 ('World of Adventure') 64bit
Библиотека кодирования : libebml v1.3.1 + libmatroska v1.4.2

Видео
Идентификатор : 1
Формат : AVC
Формат/Информация : Advanced Video Codec
Профиль формата : High@L4.1
Настройки формата : CABAC / 9 Ref Frames
Параметр CABAC формата : Да
Параметр RefFrames формата : 9 кадров
Идентификатор кодека : V_MPEG4/ISO/AVC
Продолжительность : 2 ч. 24 м.
Битрейт : 5124 Кбит/сек
Ширина : 988 пикселей
Высота : 720 пикселей
Соотношение сторон : 1,372
Режим частоты кадров : Постоянный
Частота кадров : 24,000 кадра/сек
Цветовое пространство : YUV
Субдискретизация насыщенности : 4:2:0
Битовая глубина : 8 бит
Тип развёртки : Прогрессивная
Бит/(Пиксели*Кадры) : 0.300
Размер потока : 5,18 Гбайт (93%)
Библиотека кодирования : x264 core 157 r2935 545de2f
Настройки программы : cabac=1 / ref=9 / deblock=1:-2:-2 / analyse=0x3:0x113 / me=umh / subme=11 / psy=1 / psy_rd=1.00:0.15 / mixed_ref=1 / me_range=32 / chroma_me=1 / trellis=2 / 8x8dct=1 / cqm=0 / deadzone=21,11 / fast_pskip=0 / chroma_qp_offset=-3 / threads=6 / lookahead_threads=1 / sliced_threads=0 / nr=0 / decimate=1 / interlaced=0 / bluray_compat=0 / constrained_intra=0 / bframes=12 / b_pyramid=2 / b_adapt=2 / b_bias=0 / direct=1 / weightb=1 / open_gop=0 / weightp=2 / keyint=230 / keyint_min=23 / scenecut=40 / intra_refresh=0 / rc_lookahead=40 / rc=crf / mbtree=1 / crf=19.0 / qcomp=0.60 / qpmin=0 / qpmax=69 / qpstep=4 / vbv_maxrate=50000 / vbv_bufsize=62500 / crf_max=0.0 / nal_hrd=none / filler=0 / ip_ratio=1.40 / aq=1:1.00
Язык : German
Default : Да
Forced : Нет

Аудио #1
Идентификатор : 2
Формат : AC-3
Формат/Информация : Audio Coding 3
Коммерческое название : Dolby Digital
Идентификатор кодека : A_AC3
Продолжительность : 2 ч. 24 м.
Вид битрейта : Постоянный
Битрейт : 192 Кбит/сек
Каналы : 2 канала
Channel layout : L R
Частота : 48,0 КГц
Частота кадров : 31,250 кадров/сек (1536 SPF)
Битовая глубина : 16 бит
Метод сжатия : С потерями
Размер потока : 199 Мбайт (3%)
Заголовок : Юрий Живов
Язык : Russian
ServiceKind/String : Complete Main
Default : Да
Forced : Нет

Аудио #2
Идентификатор : 3
Формат : AC-3
Формат/Информация : Audio Coding 3
Коммерческое название : Dolby Digital
Идентификатор кодека : A_AC3
Продолжительность : 2 ч. 24 м.
Вид битрейта : Постоянный
Битрейт : 192 Кбит/сек
Каналы : 2 канала
Channel layout : L R
Частота : 48,0 КГц
Частота кадров : 31,250 кадров/сек (1536 SPF)
Битовая глубина : 16 бит
Метод сжатия : С потерями
Размер потока : 199 Мбайт (3%)
Заголовок : original
Язык : German
ServiceKind/String : Complete Main
Default : Нет
Forced : Нет

Меню
00:00:00.000 : :Chapter 1
00:02:51.875 : :Chapter 2
00:10:32.415 : :Chapter 3
00:16:07.416 : :Chapter 4
00:28:40.625 : :Chapter 5
00:33:14.625 : :Chapter 6
00:48:58.916 : :Chapter 7
00:57:56.958 : :Chapter 8
01:02:20.625 : :Chapter 9
01:15:35.875 : :Chapter 10
01:19:38.957 : :Chapter 11
01:23:42.416 : :Chapter 12
01:45:08.875 : :Chapter 13
01:51:32.416 : :Chapter 14
02:15:46.875 : :Chapter 15
02:20:09.415 : :Chapter 16
piratbit.pw



Скачать Смерть - моё ремесло через торрент https://d.radikal.ru/d17/1904/35/6c483d9bcea4.jpg Скачать фильм Смерть - моё ремесло через торрент бесплантно в хорошем качестве О фильме: Фильм рассказывает о жизни оберштурмбанфюрера Рудольфа Ланга — начальника, основателя и коменданта лагеря смерти ... 10 10 1
Info! Золотая раздача, скачанное не засчитывается.
Торрент: Зарегистрирован [2019-04-03 06:15] · скачан: 4 раз
Статус: √ проверено
Размер: 5.57 GB
Как cкачать? Как скачать Смерть - моё ремесло через торрент | UTorrent

% Раздел Тема Автор DL S | L
Фильмы с авторской озвучкой [ 16.19 GB ] Смерть - моё ремесло / Aus einem deutschen Leben [1977 биография BDRip 1080p by msltel] AVO msltel Скачать
1 | 0

28-11-2019 20:33  

Отключить всю рекламу на сайте

    Дорогой пользователь! Огромная просьба, поблагодарите релизера, оцените раздачу и оставьте свои комментарий, если Вы скачали Смерть - моё ремесло через торрент бесплатно! Внесите свою лепту в развитие PiratBit!
    Комментировать посты могут только пользователи прошедшие не сложную регистрацию
    Показать сообщения:    

    Смерть - моё ремесло через торрент
    Скачать бесплатно Смерть - моё ремесло
    Смерть - моё ремесло скачать торрент
    Смерть - моё ремесло смотреть онлайн
    Cкачать фильм Смерть - моё ремесло бесплатно
    Смерть - моё ремесло скачать торрент в хорошем качестве
    Смерть - моё ремесло смотреть онлайн бесплатно в хорошем качестве


    Вы не можете начинать темы
    Вы не можете отвечать на сообщения
    Вы не можете редактировать свои сообщения
    Вы не можете удалять свои сообщения
    Вы не можете голосовать в опросах
    Вы не можете прикреплять файлы к сообщениям
    Вы можете скачивать файлы