Ссылка на приватное зеркало нашего сайта всего за 1$. Внимание количество ограничено!!!

2 сезон

iTunes

iTunes

1

iTunes

iTunes

iTunes

WEBRip

iTunes

30
pack

Новость дня

ВАЖНО

!!Акция!!

Alien_RageХит недели

RePack

Horizon Zero Dawn

ИГРА 18+

pack

RePack

jed

!!Акция!!

Alien_Rage

RePack

fifa19

RePack

Assassins Creed: Odyssey

RePack

NEED FOR SPEED™ PAYBACK

4 сезон

9 сезон

Бесстыжие 9 сезон

Все сериалы

все сериалы на PB.wtf

RePack

FAR CRY 5
  

Простая девчонка (Максим Бриус) [2015, Мелодрама, HDTV 1080i] piratbit.pw

Простая девчонка через торрент piratbit.pw

Размер: 6.08 GB | Добавлен: 1 год 5 мес. назад | Торрент скачан:9 раз
Скачать  

31-03-2019 09:19 Простая девчонка Скачать торрент  

Простая девчонкаГод выпуска: 2015
Страна: Россия
Жанр: Мелодрама
Продолжительность: 01:45:10
Субтитры: отсутствуют

Режиссер: Максим Бриус



В ролях:

Анастасия Стежко, Станислав Эрдлей, Борис Хвошнянский, Александр Абрамович, Светлана Никифорова, Галина Чернобаева, Инна Коляда, Виктор Васильев, Ольга Сизова, Светлана Клименко, Константин Задворный

Описание:

Алена Шелестова живет и работает в большом городе. Несмотря на то, что Алена еще очень молода, она занята серьезным делом – пишет кандидатскую по истории стекольного производства, а заодно организует выставку старинных изделий из стекла.

Качество: HDTV 1080i
Формат: TS

Видео: AVC, 1920 х 1080 (16:9), 25,000 кадр/сек, 7 871 Кбит/сек, 0.152 bit/pixel
Аудио: MP2, 2 ch, 192 Кбит/с
скриншот  скриншот  скриншот  скриншот  скриншот  

General
ID : 1 (0x1)
Complete name : D:\Раздачи\Простая девчонка HDTV (1080i)\Простая девчонка HDTV (1080i).ts
Format : MPEG-TS
File size : 6.08 GiB
Duration : 1h 42mn
Overall bit rate mode : Variable
Overall bit rate : 8 484 Kbps

Video
ID : 2911 (0xB5F)
Menu ID : 1009 (0x3F1)
Format : AVC
Format/Info : Advanced Video Codec
Format profile : High@L4
Format settings, CABAC : Yes
Format settings, ReFrames : 4 frames
Codec ID : 27
Duration : 1h 42mn
Bit rate : 7 871 Kbps
Width : 1 920 pixels
Height : 1 080 pixels
Display aspect ratio : 16:9
Frame rate : 25.000 fps
Color space : YUV
Chroma subsampling : 4:2:0
Bit depth : 8 bits
Scan type : MBAFF
Scan type, store method : Interleaved fields
Scan order : Top Field First
Bits/(Pixel*Frame) : 0.152
Stream size : 5.64 GiB (93%)

Audio
ID : 2912 (0xB60)
Menu ID : 1009 (0x3F1)
Format : MPEG Audio
Format version : Version 1
Format profile : Layer 2
Codec ID : 3
Duration : 1h 42mn
Bit rate mode : Constant
Bit rate : 192 Kbps
Channel(s) : 2 channels
Sampling rate : 48.0 KHz
Compression mode : Lossy
Stream size : 141 MiB (2%)
Language : Russian

piratbit.pw



Скачать Простая девчонка через торрент http://s61.radikal.ru/i174/1511/87/364f55712d91.jpg Скачать фильм Простая девчонка через торрент бесплантно в хорошем качестве Описание: Алена Шелестова живет и работает в большом городе. Несмотря на то, что Алена еще очень молода, она занята серьезным делом – пишет ... 10 10 2
Торрент: Зарегистрирован [2019-03-31 09:19] · скачан: 9 раз
Статус: √ проверено
Размер: 6.08 GB
Как cкачать? Как скачать Простая девчонка через торрент | qTorrent

% Раздел Тема Автор DL S | L
Секс с подростками [ 319 MB ] Просто красивая девчонка просто красивый секс [2013 Latin Teen Straight Creampie. DVDRip] Pir@tya2010 Скачать
1 | 0

28-11-2019 20:33  

Отключить всю рекламу на сайте

    Дорогой пользователь! Огромная просьба, поблагодарите релизера, оцените раздачу и оставьте свои комментарий, если Вы скачали Простая девчонка через торрент бесплатно! Внесите свою лепту в развитие PiratBit!
    Комментировать посты могут только пользователи прошедшие не сложную регистрацию
    Показать сообщения:    

    Простая девчонка через торрент
    Скачать бесплатно Простая девчонка
    Простая девчонка скачать торрент
    Простая девчонка смотреть онлайн
    Cкачать фильм Простая девчонка бесплатно
    Простая девчонка скачать торрент в хорошем качестве
    Простая девчонка смотреть онлайн бесплатно в хорошем качестве


    Вы не можете начинать темы
    Вы не можете отвечать на сообщения
    Вы не можете редактировать свои сообщения
    Вы не можете удалять свои сообщения
    Вы не можете голосовать в опросах
    Вы не можете прикреплять файлы к сообщениям
    Вы можете скачивать файлы