Marvel's Avengers Deluxe Edition (супер цена) 159р. Внимание количество ограничено!!!

2 сезон

iTunes

iTunes

1

iTunes

iTunes

iTunes

WEBRip

iTunes

30
pack

Новость дня

ВАЖНО

!!Акция!!

Alien_RageХит недели

RePack

Horizon Zero Dawn

ИГРА 18+

pack

RePack

jed

!!Акция!!

Alien_Rage

RePack

fifa19

RePack

Assassins Creed: Odyssey

RePack

NEED FOR SPEED™ PAYBACK

4 сезон

9 сезон

Бесстыжие 9 сезон

Все сериалы

все сериалы на PB.wtf

RePack

FAR CRY 5
  

Т-34 (Алексей Сидоров) [2019, драма, военный, приключения, BDRip 720p] [Лицензия BD RUS] piratbit.pw

Т-34 через торрент piratbit.pw

Размер: 7.28 GB | Добавлен: 1 год 5 мес. назад | Торрент скачан:215 раз
Скачать  

31-03-2019 08:05 Т-34 Скачать торрент  

Т-34
Год выпуска: 2019
Страна: Россия
Жанр: драма, военный, приключения
Продолжительность: 02:19:08
Перевод: Не требуется | Лицензия BD RUS
Субтитры: русские (полные), английские (полные)

Режиссер: Алексей Сидоров

rating

В ролях:

Александр Петров (Николай Ивушкин), Виктор Добронравов (Василенок), Ирина Старшенбаум (Аня), Винценц Кифер (Клаус), Петр Скворцов (Лыков), Семен Трескунов (Тетеря), Антон Богданов (Волчок), Василий Уриевский, Василий Буткевич (ординарец Корина), Ярослав Штефан (Макеев, пулеметчик), Кирилл Лопаткин (немецкий пехотинец), Полина Волкова (дочь хозяйки)
Описание:

Во времена величайших испытаний человечества, когда от каждого действия зависят жизни любимых, два заклятых врага начнут свое противостояние.

Оказавшись в плену, вчерашний курсант Ивушкин планирует дерзкий побег. Он собирает свой экипаж и на легендарной «тридцатьчетверке» бросает вызов немецким танковым асам во главе с Ягером. Ради своей любви и Родины он готов идти до конца.

Качество: BDRip 720p
Формат: MKV

Видео: MPEG-4 AVC, 1280x536, 5339 kbps, 24,000 fps
Аудио#1: русский, DTS 5.1 ch, 48 kHz, 24 bit, 1509 kbps
Аудио#2: русский, AC3, 5.1 ch, 48 kHz, 16 bit, 640 kbps
скриншот  скриншот  скриншот  скриншот  скриншот  

General
Уникальный идентификатор : 218000064743052314496065486321428411574 (0xA40149069545B486A5708777CC6334B6)
Полное имя : E:TorrentT34BDRip720p.mkv
Формат : Matroska
Версия формата : Version 4 / Version 2
Размер файла : 7.28 GiB
Продолжительность : 2 h 19 min
Общий поток : 7 488 kb/s
Дата кодирования : UTC 2019-03-29 02:26:35
Программа кодирования : mkvmerge v9.5.0 ('Quiet Fire') 64bit
Библиотека кодирования : libebml v1.3.4 + libmatroska v1.4.5

Video
Идентификатор : 1
Формат : AVC
Формат/Информация : Advanced Video Codec
Профиль формата : High@L4.1
Настройки формата : CABAC / 12 Ref Frames
Параметр CABAC формата : Yes
Параметр RefFrames формата : 12 frames
Идентификатор кодека : V_MPEG4/ISO/AVC
Продолжительность : 2 h 19 min
Битрейт : 5 339 kb/s
Ширина : 1 280 pixels
Высота : 536 pixels
Соотношение сторон : 2.40:1
Режим частоты кадров : Constant
Частота кадров : 24.000 FPS
Цветовое пространство : YUV
Субдискретизация насыщенности : 4:2:0
Битовая глубина : 8 bits
Тип развёртки : Progressive
Бит/(Пиксели*Кадры) : 0.324
Размер потока : 5.19 GiB (71%)
Библиотека кодирования : x264 core 157 r2935 545de2f
Настройки программы : cabac=1 / ref=12 / deblock=1:-1:-1 / analyse=0x3:0x133 / me=umh / subme=11 / psy=1 / psy_rd=1.00:0.00 / mixed_ref=1 / me_range=48 / chroma_me=1 / trellis=2 / 8x8dct=1 / cqm=0 / deadzone=21,11 / fast_pskip=0 / chroma_qp_offset=-2 / threads=5 / lookahead_threads=1 / sliced_threads=0 / nr=0 / decimate=0 / interlaced=0 / bluray_compat=0 / constrained_intra=0 / bframes=14 / b_pyramid=2 / b_adapt=2 / b_bias=0 / direct=3 / weightb=1 / open_gop=0 / weightp=2 / keyint=240 / keyint_min=24 / scenecut=40 / intra_refresh=0 / rc_lookahead=120 / rc=2pass / mbtree=0 / bitrate=5339 / ratetol=1.0 / qcomp=0.70 / qpmin=0 / qpmax=69 / qpstep=4 / cplxblur=20.0 / qblur=0.5 / vbv_maxrate=62500 / vbv_bufsize=78125 / nal_hrd=none / filler=0 / ip_ratio=1.40 / pb_ratio=1.30 / aq=3:1.00
Язык : Russian
Default : Yes
Forced : No
Цветовой диапазон : Limited
Основные цвета : BT.709
Характеристики трансфера : BT.709
Коэффициенты матрицы : BT.709

Audio #1
Идентификатор : 2
Формат : DTS
Формат/Информация : Digital Theater Systems
Идентификатор кодека : A_DTS
Продолжительность : 2 h 19 min
Вид битрейта : Constant
Битрейт : 1 509 kb/s
Каналы : 6 channels
Расположение каналов : Front: L C R, Side: L R, LFE
Частота : 48.0 kHz
Частота кадров : 93.750 FPS (512 SPF)
Битовая глубина : 24 bits
Метод сжатия : Lossy
Размер потока : 1.47 GiB (20%)
Заголовок : DTS
Язык : Russian
Default : Yes
Forced : No

Audio #2
Идентификатор : 3
Формат : AC-3
Формат/Информация : Audio Coding 3
Идентификатор кодека : A_AC3
Продолжительность : 2 h 19 min
Вид битрейта : Constant
Битрейт : 640 kb/s
Каналы : 6 channels
Расположение каналов : Front: L C R, Side: L R, LFE
Частота : 48.0 kHz
Частота кадров : 31.250 FPS (1536 SPF)
Битовая глубина : 16 bits
Метод сжатия : Lossy
Размер потока : 637 MiB (9%)
Язык : Russian
Default : No
Forced : No

Text #1
Идентификатор : 4
Формат : UTF-8
Идентификатор кодека : S_TEXT/UTF8
Идентификатор кодека/Информация : UTF-8 Plain Text
Продолжительность : 2 h 11 min
Битрейт : 48 b/s
ElementCount : 970
Размер потока : 46.3 KiB (0%)
Заголовок : rusFull
Язык : Russian
Default : No
Forced : No

Text #2
Идентификатор : 5
Формат : UTF-8
Идентификатор кодека : S_TEXT/UTF8
Идентификатор кодека/Информация : UTF-8 Plain Text
Продолжительность : 2 h 11 min
Битрейт : 30 b/s
ElementCount : 970
Размер потока : 29.3 KiB (0%)
Заголовок : engFull
Язык : English
Default : No
Forced : No

Menu
00:00:00.000 : :Chapter 1
00:01:17.875 : :Chapter 2
00:12:31.250 : :Chapter 3
00:24:54.041 : :Chapter 4
00:35:06.916 : :Chapter 5
00:49:36.291 : :Chapter 6
01:03:21.041 : :Chapter 7
01:17:58.583 : :Chapter 8
01:30:55.458 : :Chapter 9
01:46:42.666 : :Chapter 10
02:03:33.916 : :Chapter 11

piratbit.pw



Скачать Т-34 через торрент https://c.radikal.ru/c08/1903/6d/04082b798e1f.jpg Скачать фильм Т-34 через торрент бесплантно в хорошем качестве Описание: Во времена величайших испытаний человечества, когда от каждого действия зависят жизни любимых, два заклятых врага начнут свое ... 7.8 10 12
Info! Золотая раздача, скачанное не засчитывается.
Торрент: Зарегистрирован [2019-03-31 08:05] · скачан: 215 раз
Статус: √ проверено
Размер: 7.28 GB
Как cкачать? Как скачать Т-34 через торрент | qTorrent

% Раздел Тема Автор DL S | L
Наши фильмы (Blu-ray, BD-Remux, HDDVD) [ 33.45 GB ] Т-34 [2018 военный BDRemux 1080p] [] sheker187 Скачать
2 | 0
Наши фильмы (HD, WEB-DL 720p, 1080p) [ 4.26 GB ] Т-34 [2018 военный BDRip 1080p-HEVC 10bit] ADVOKAT69 Скачать
1 | 0
Наши новые фильмы 2018-2019 [ 2.18 GB ] Т-34 [2019 военный BDRip] Twi7ter Скачать
2 | 0
Наши фильмы (HD, WEB-DL 720p, 1080p) [ 8.27 GB ] Т-34 [2019 военный BDRip-HEVC 1080p ] [ BD RUS] bober100 Скачать
1 | 0
Наши новые фильмы 2018-2019 [ 1.46 GB ] Т-34 [2019 военный BDRip] [] Twi7ter Скачать
3 | 0
Наши новые фильмы 2018-2019 [ 2.4 GB ] Т-34 [2019 военный BDRip-AVC] от ExKinoRay morfyi Скачать
2 | 0
Наши фильмы (HD, WEB-DL 720p, 1080p) [ 12.67 GB ] Т-34 [2019 военный BDRip 1080p] [ BD RUS] bober100 Скачать
2 | 0

28-11-2019 20:33  

Отключить всю рекламу на сайте

    Дорогой пользователь! Огромная просьба, поблагодарите релизера, оцените раздачу и оставьте свои комментарий, если Вы скачали Т-34 через торрент бесплатно! Внесите свою лепту в развитие PiratBit!
    Комментировать посты могут только пользователи прошедшие не сложную регистрацию
    Показать сообщения:    

    Т-34 через торрент
    Скачать бесплатно Т-34
    Т-34 скачать торрент
    Т-34 смотреть онлайн
    Cкачать фильм Т-34 бесплатно
    Т-34 скачать торрент в хорошем качестве
    Т-34 смотреть онлайн бесплатно в хорошем качестве


    Вы не можете начинать темы
    Вы не можете отвечать на сообщения
    Вы не можете редактировать свои сообщения
    Вы не можете удалять свои сообщения
    Вы не можете голосовать в опросах
    Вы не можете прикреплять файлы к сообщениям
    Вы можете скачивать файлы