1 сезон

1 сезон

iTunes

1

КиноПоиск HD

Кинопоиск HD

iTunes

13

1 сезон

RePack

30

Новинка

ВАЖНО

ИГРА 18+

pack

RePack

MK11
pack

Легкие деньги

RePack

jed

RePack

fifa19

RePack

RDR2

RePack

NEED FOR SPEED™ PAYBACK

4 сезон

9 сезон

Бесстыжие 9 сезон

Все сериалы

все сериалы на PB.wtf

RePack

FAR CRY 5
  
Magnet ссылка

Карательница / A Vigilante (Сара Даггар-Никсон) [2018, Триллер, драма, криминал, детектив, WEB-DLRip-AVC] [AVO] (BadBajo) - ExKinoRay piratbit.pw

Карательница через торрент piratbit.pw

Размер: 1.62 GB | Добавлен: 2 года назад | Торрент скачан:166 раз
Скачать  

30-03-2019 00:51 Карательница Скачать торрент  

Название: Карательница
Оригинальное название: A Vigilante
Год выпуска: 2018
Жанр: Триллер, драма, криминал, детектив
Режиссер: Сара Даггар-Никсон
В ролях: Оливия Уайлд, Морган Спектор, Бетси Айдем, Кайл Кэтлетт, Тони Патано, С.Дж. Уилсон, Джуди Марте, Кристал Лэйк Эванс, Джим Форд, Дэвид Шамбрис

Описание:
Сади помогает жертвам домашнего насилия сбегать от мучителей — она берёт правосудие в свои руки и начинает методично разбираться с негодяями. Но работа карательницы не так проста, а старые шрамы и раны того и гляди дадут о себе знать.


rating

Выпущено: США, Badlands Entertainment, Emmett/Furla/Oasis Films (EFO Films), Film Science
Продолжительность: 01:31:19
Перевод: Авторский - А.Важенин [BadBajo]
Субтитры: Английские

БЕЗ КАКОЙ-ЛИБО РЕКЛАМЫ!

Формат: MKV
Качество: WEB-DLRip-AVC
Видео: MPEG-4 AVC, 1024x552 (1.85:1), 23.976 fps, 1768 Kbps, 0.130 bit/pixel
Аудио #01: 48 kHz, AC3, 5.1, 384 Kbps | Важенин | RUS |
Аудио #02: 48 kHz, AC3, 5.1, 384 Kbps | Оригинал | ENG |
General
Unique ID : 232967962439721391268575642018516861243 (0xAF43FF5BCD977BEFB88CE9E6BB8C813B)
Complete name : D:\A.Vigilante.2018.AVO.WEB-DLRip.AVC.ExKinoRay.mkv
Format : Matroska
Format version : Version 2
File size : 1.62 GiB
Duration : 1 h 31 min
Overall bit rate : 2 534 kb/s
Movie name : A Vigilante 2018 from ExKinoRay
Encoded date : UTC 2019-03-29 21:03:47
Writing application : mkvmerge v5.6.0 ('Kenya Kane') built on May 27 2012 16:44:04
Writing library : libebml v1.2.3 + libmatroska v1.3.0

Video
ID : 1
Format : AVC
Format/Info : Advanced Video Codec
Format profile : High@L4.1
Format settings, CABAC : Yes
Format settings, ReFrames : 12 frames
Codec ID : V_MPEG4/ISO/AVC
Duration : 1 h 31 min
Bit rate : 1 768 kb/s
Width : 1 024 pixels
Height : 552 pixels
Display aspect ratio : 1.85:1
Frame rate mode : Constant
Frame rate : 23.976 (23976/1000) FPS
Color space : YUV
Chroma subsampling : 4:2:0
Bit depth : 8 bits
Scan type : Progressive
Bits/(Pixel*Frame) : 0.130
Stream size : 1.09 GiB (68%)
Title : Enigma
Writing library : x264 core 152 r2851 ba24899
Encoding settings : cabac=1 / ref=12 / deblock=1:-2:-2 / analyse=0x3:0x113 / me=umh / subme=10 / psy=1 / psy_rd=1.05:0.10 / mixed_ref=1 / me_range=32 / chroma_me=1 / trellis=2 / 8x8dct=1 / cqm=0 / deadzone=21,11 / fast_pskip=0 / chroma_qp_offset=-3 / threads=12 / lookahead_threads=2 / sliced_threads=0 / nr=0 / decimate=0 / interlaced=0 / bluray_compat=0 / constrained_intra=0 / bframes=9 / b_pyramid=2 / b_adapt=2 / b_bias=0 / direct=3 / weightb=1 / open_gop=0 / weightp=2 / keyint=240 / keyint_min=23 / scenecut=40 / intra_refresh=0 / rc_lookahead=40 / rc=2pass / mbtree=1 / bitrate=1768 / ratetol=1.0 / qcomp=0.60 / qpmin=0 / qpmax=51 / qpstep=4 / cplxblur=20.0 / qblur=0.5 / ip_ratio=1.30 / aq=2:0.90
Language : English
Default : Yes
Forced : No
Color range : Limited
Color primaries : BT.709
Transfer characteristics : BT.709
Matrix coefficients : BT.709

Audio #1
ID : 2
Format : AC-3
Format/Info : Audio Coding 3
Mode extension : CM (complete main)
Format settings, Endianness : Big
Codec ID : A_AC3
Duration : 1 h 31 min
Bit rate mode : Constant
Bit rate : 384 kb/s
Channel(s) : 6 channels
Channel positions : Front: L C R, Side: L R, LFE
Sampling rate : 48.0 kHz
Frame rate : 31.250 FPS (1536 spf)
Compression mode : Lossy
Stream size : 251 MiB (15%)
Title : AVO (BadBajo)
Language : Russian
Default : Yes
Forced : No

Audio #2
ID : 3
Format : AC-3
Format/Info : Audio Coding 3
Mode extension : CM (complete main)
Format settings, Endianness : Big
Codec ID : A_AC3
Duration : 1 h 31 min
Bit rate mode : Constant
Bit rate : 384 kb/s
Channel(s) : 6 channels
Channel positions : Front: L C R, Side: L R, LFE
Sampling rate : 48.0 kHz
Frame rate : 31.250 FPS (1536 spf)
Compression mode : Lossy
Stream size : 251 MiB (15%)
Language : English
Default : No
Forced : No

Text
ID : 4
Format : UTF-8
Codec ID : S_TEXT/UTF8
Codec ID/Info : UTF-8 Plain Text
Language : English
Default : No
Forced : No

Menu
00:00:00.000 : en:1
00:03:17.000 : en:2
00:12:54.000 : en:3
00:24:31.000 : en:4
00:34:20.000 : en:5
00:48:45.000 : en:6
00:56:06.000 : en:7
01:08:43.000 : en:8
01:16:11.000 : en:9
01:26:10.000 : en:10
Релиз от:

Автор релиза: piratbit.pw



Скачать Карательница через торрент https://d.radikal.ru/d24/1903/e3/a3552552be3e.jpg Скачать фильм Карательница через торрент бесплантно в хорошем качестве Описание: Сади помогает жертвам домашнего насилия сбегать от мучителей — она берёт правосудие в свои руки и начинает методично разбираться ... 9.9 10 7
Info! Золотая раздача, скачанное не засчитывается.
Торрент: Зарегистрирован [2019-03-30 00:51] · скачан: 166 раз
Статус: √ проверено
Размер: 1.62 GB
Как cкачать? Как скачать Карательница через торрент | UTorrent

% Раздел Тема Автор DL S | L
Фильмы 2018 [DVDrip, WEB-DLRip, HDrip] (DUB, MVO) [ 2.07 GB ] Карательница / A Vigilante [2018 BDRip-AVC] MVO [AVO] - ExKinoRay Enigma2010 Скачать
3 | 0

28-11-2019 20:33  

Отключить всю рекламу на сайте

31-03-2019 00:24 Карательница Скачать торрент  

Не скажу, что полный отстой, но лучше бы не смотрел. Очень нудный, затянутый, примитивный фильм. Это лишь моё мнение. Смотрите, оценивайте.piratbit.pw



    Дорогой пользователь! Огромная просьба, поблагодарите релизера, оцените раздачу и оставьте свои комментарий, если Вы скачали Карательница через торрент бесплатно! Внесите свою лепту в развитие PiratBit!
    Комментировать посты могут только пользователи прошедшие не сложную регистрацию
    Показать сообщения:    

    Карательница через торрент
    Скачать бесплатно Карательница
    Карательница скачать торрент
    Карательница смотреть онлайн
    Cкачать фильм Карательница бесплатно
    Карательница скачать торрент в хорошем качестве
    Карательница смотреть онлайн бесплатно в хорошем качестве


    Вы не можете начинать темы
    Вы не можете отвечать на сообщения
    Вы не можете редактировать свои сообщения
    Вы не можете удалять свои сообщения
    Вы не можете голосовать в опросах
    Вы не можете прикреплять файлы к сообщениям
    Вы можете скачивать файлы