1 сезон

1 сезон

iTunes

1

КиноПоиск HD

Кинопоиск HD

iTunes

13

1 сезон

RePack

30

Новинка

ВАЖНО

ИГРА 18+

pack

RePack

MK11
pack

Легкие деньги

RePack

jed

RePack

fifa19

RePack

RDR2

RePack

NEED FOR SPEED™ PAYBACK

4 сезон

9 сезон

Бесстыжие 9 сезон

Все сериалы

все сериалы на PB.wtf

RePack

FAR CRY 5
  
Magnet ссылка

Наркокурьер / The Mule (Клинт Иствуд) [2018, триллер, драма, криминал, BDRemux 1080p] AVO [Михаил Яроцкий] piratbit.pw

Наркокурьер через торрент piratbit.pw

Размер: 31.99 GB | Добавлен: 2 года назад | Торрент скачан:17 раз
Скачать  

28-03-2019 02:09 Наркокурьер Скачать торрент  

Наркокурьер / The Mule«Nobody Runs Forever»

Год выпуска: 2018
Страна: США
Жанр: триллер, драма, криминал
Продолжительность: 01:56:27
Перевод: Авторский (одноголосый, закадровый) | Михаил Яроцкий
Субтитры: Английские
Режиссер: Клинт Иствуд
В ролях:

Клинт Иствуд (Earl Stone), Брэдли Купер (Agent Colin Bates), Лоренс Фишбёрн (Special Agent in Charge), Майкл Пенья (Agent Treviño), Дайэнн Уист (Mary), Энди Гарсиа (Laton), Элисон Иствуд (Iris), Таисса Фармига (Ginny), Игнасио Серричио (Julio), Лорен Дин (Agent Brown), Виктор Расук (Rico), Мэнни Монтана (Axl)
Описание:
Эрл Стоун - одинокий старик. Его частный бизнес находится на грани разорения, отношения с женой не ладятся, а дети, кажется, давно забыли о его существовании. Неожиданно ему предлагают непыльную, но прибыльную работенку - просто водить машину. Стоун поначалу соглашается и вскоре понимает, что стал наркокурьером мексиканского картеля и попал в поле зрения оперативника Агентства по контролю за оборотом наркотиков.
Рейтинг:

MPAA: R - Лицам до 17 лет обязательно присутствие взрослого
Качество: BDRemux 1080p
Формат: MKV
Видео: MPEG-4 AVC, 1920x1080, 32.5 Mbit/s, 23.976 fps
Аудио #01: 48 kHz, DTS-HD MA, 5.1, 3426 Kbps | Авторский | RUS |
Аудио #02: 48 kHz, DTS-HD MA, 5.1, 3356 Kbps | Оригинал | ENG |
Навигация по главам: Есть
General
Unique ID : 173867680527484273909534108377965729612 (0x82CDB27D97EA9048C321CA372EE9174C)
Complete name : D:Video111The.Mule.2018.AVO.BDREMUX.1080p.seleZen.mkv
Format : Matroska
Format version : Version 4
File size : 32.0 GiB
Duration : 1 h 56 min
Overall bit rate mode : Variable
Overall bit rate : 39.3 Mb/s
Movie name : The Mule 2018 from селезень
Encoded date : UTC 2019-03-28 01:00:15
Writing application : mkvmerge v32.0.0 ('Astral Progressions') 64-bit
Writing library : libebml v1.3.7 + libmatroska v1.5.0

Video
ID : 1
Format : AVC
Format/Info : Advanced Video Codec
Format profile : High@L4.1
Format settings : CABAC / 4 Ref Frames
Format settings, CABAC : Yes
Format settings, ReFrames : 4 frames
Format settings, GOP : M=3, N=12
Codec ID : V_MPEG4/ISO/AVC
Duration : 1 h 56 min
Bit rate mode : Variable
Bit rate : 32.5 Mb/s
Maximum bit rate : 36.0 Mb/s
Width : 1 920 pixels
Height : 1 080 pixels
Display aspect ratio : 16:9
Frame rate mode : Constant
Frame rate : 23.976 (24000/1001) FPS
Color space : YUV
Chroma subsampling : 4:2:0
Bit depth : 8 bits
Scan type : Progressive
Bits/(Pixel*Frame) : 0.655
Stream size : 26.5 GiB (83%)
Language : English
Default : Yes
Forced : No

Audio #1
ID : 2
Format : DTS XLL
Format/Info : Digital Theater Systems
Commercial name : DTS-HD Master Audio
Codec ID : A_DTS
Duration : 1 h 56 min
Bit rate mode : Variable
Bit rate : 3 426 kb/s
Channel(s) : 6 channels
Channel layout : C L R Ls Rs LFE
Sampling rate : 48.0 kHz
Frame rate : 93.750 FPS (512 SPF)
Bit depth : 24 bits
Compression mode : Lossless
Stream size : 2.79 GiB (9%)
Title : AVO [kyberpunk]
Language : Russian
Default : Yes
Forced : Yes

Audio #2
ID : 3
Format : DTS XLL
Format/Info : Digital Theater Systems
Commercial name : DTS-HD Master Audio
Codec ID : A_DTS
Duration : 1 h 56 min
Bit rate mode : Variable
Bit rate : 3 356 kb/s
Channel(s) : 6 channels
Channel layout : C L R Ls Rs LFE
Sampling rate : 48.0 kHz
Frame rate : 93.750 FPS (512 SPF)
Bit depth : 24 bits
Compression mode : Lossless
Stream size : 2.73 GiB (9%)
Title : Original
Language : English
Default : No
Forced : No

Text
ID : 4
Format : UTF-8
Codec ID : S_TEXT/UTF8
Codec ID/Info : UTF-8 Plain Text
Duration : 1 h 46 min
Bit rate : 59 b/s
Count of elements : 1517
Stream size : 46.7 KiB (0%)
Title : Full
Language : English
Default : No
Forced : No

Menu
00:00:00.000 : en:Chapter 1
00:06:45.822 : en:Chapter 2
00:15:27.885 : en:Chapter 3
00:23:24.236 : en:Chapter 4
00:32:22.482 : en:Chapter 5
00:40:29.886 : en:Chapter 6
00:48:20.564 : en:Chapter 7
00:57:55.347 : en:Chapter 8
01:07:17.408 : en:Chapter 9
01:16:17.364 : en:Chapter 10
01:23:18.785 : en:Chapter 11
01:32:20.160 : en:Chapter 12
01:39:12.947 : en:Chapter 13
01:46:17.580 : en:Chapter 14
01:48:52.443 : en:Chapter 15
piratbit.pw



Скачать Наркокурьер через торрент https://c.radikal.ru/c36/1903/80/3eea33ca7bd5.png Скачать фильм Наркокурьер через торрент бесплантно в хорошем качестве Описание: Эрл Стоун - одинокий старик. Его частный бизнес находится на грани разорения, отношения с женой не ладятся, а дети, кажется, ... 10 10 2
Торрент: Зарегистрирован [2019-03-28 02:09] · скачан: 17 раз
Статус: √ проверено
Размер: 31.99 GB
Как cкачать? Как скачать Наркокурьер через торрент | UTorrent

% Раздел Тема Автор DL S | L
Фильмы 2018 [DVDrip, WEB-DLRip, HDrip] (DUB, MVO) [ 2.16 GB ] Наркокурьер / The Mule [2018 BDRip-AVC] MVO [HDRezka Studio] - ExKinoRay Enigma2010 Скачать
1 | 0
Фильмы [HD 720p, 1080p] (Хороший звук DUB, MVO) [ 13.41 GB ] Наркокурьер / The Mule [2018 BDRip 1080p] DUB [] bober100 Скачать
1 | 0
Фильмы 2018 [DVDrip, WEB-DLRip, HDrip] (DUB, MVO) [ 2.18 GB ] Наркокурьер / The Mule [2018 BDRip] - [] Twi7ter Скачать
6 | 0
Фильмы 2018 [DVDrip, WEB-DLRip, HDrip] (DUB, MVO) [ 710 MB ] Наркокурьер / The Mule [2018 HDRip "BD EUR"] coc900 Скачать
1 | 0
Фильмы 2018 [DVDrip, WEB-DLRip, HDrip] (DUB, MVO) [ 1.46 GB ] Наркокурьер / The Mule [2018 BDRip] - [] Twi7ter Скачать
12 | 0
Фильмы [HD 720p, 1080p] (Хороший звук DUB, MVO) [ 6.43 GB ] Наркокурьер / The Mule [2018 BDRip 720p] DUB [] bober100 Скачать
1 | 0
Ultra HD (UHD: 2K, 4K, 8K) — видео сверхвысокой чёткости [ 54.25 GB ] Наркокурьер / The Mule [2018 UHD Blu-ray 2160p] DUB [] sheker187 Скачать
1 | 0

28-11-2019 20:33  

Отключить всю рекламу на сайте

    Дорогой пользователь! Огромная просьба, поблагодарите релизера, оцените раздачу и оставьте свои комментарий, если Вы скачали Наркокурьер через торрент бесплатно! Внесите свою лепту в развитие PiratBit!
    Комментировать посты могут только пользователи прошедшие не сложную регистрацию
    Показать сообщения:    

    Наркокурьер через торрент
    Скачать бесплатно Наркокурьер
    Наркокурьер скачать торрент
    Наркокурьер смотреть онлайн
    Cкачать фильм Наркокурьер бесплатно
    Наркокурьер скачать торрент в хорошем качестве
    Наркокурьер смотреть онлайн бесплатно в хорошем качестве


    Вы не можете начинать темы
    Вы не можете отвечать на сообщения
    Вы не можете редактировать свои сообщения
    Вы не можете удалять свои сообщения
    Вы не можете голосовать в опросах
    Вы не можете прикреплять файлы к сообщениям
    Вы можете скачивать файлы