1 сезон

1 сезон

iTunes

1

КиноПоиск HD

Кинопоиск HD

iTunes

13

1 сезон

RePack

30

Новинка

ВАЖНО

ИГРА 18+

pack

RePack

MK11
pack

Легкие деньги

RePack

jed

RePack

fifa19

RePack

RDR2

RePack

NEED FOR SPEED™ PAYBACK

4 сезон

9 сезон

Бесстыжие 9 сезон

Все сериалы

все сериалы на PB.wtf

RePack

FAR CRY 5
  
Magnet ссылка

Маньяк-полицейский / Maniac Cop (Уильям Лустиг) [1988, ужасы, боевик, криминал, детектив, BDRip-HEVC 1080p, (10 bit)] AVO [А. Михалев] piratbit.pw

Маньяк-полицейский через торрент piratbit.pw

Размер: 9.18 GB | Добавлен: 2 года назад | Торрент скачан:7 раз
Скачать  

22-03-2019 20:54 Маньяк-полицейский Скачать торрент  

Маньяк-полицейский / Maniac Cop Год выпуска: 1988
Страна: США
Жанр: ужасы, боевик, криминал, детектив
Продолжительность: 01:24:57
Перевод: Авторский (одноголосый) | Алексей Михалев
Субтитры: отсутствуют

Режиссер: Уильям Лустиг

rating

В ролях:

Том Аткинс, Брюс Кэмпбелл, Лаурен Лэндон, Ричард Раундтри, Уильям Смит, Роберт З'Дар, Шири Норт, Нина Арвесен, Ник Барбаро, Лу Бонаки

Описание:

Нью-Йорк в ужасе! Город охватила серия жестоких убийств. Все свидетели утверждают, что их совершил некто в форме полицейского. Управление полиции поначалу не верит в это, и только лейтенант Френк МакКрей понимает, о ком идет речь.

Качество: BDRip-HEVC 1080p
Формат: MKV

Видео: HEVC/x.265, 1920x1040, ~15.0 Mb/s, 10 bits
Аудио: AC3, 6 ch, 448 Kbps Авторский (одноголосый закадровый) Алексей Михалев
скриншот  скриншот  скриншот  скриншот  

General
Unique ID : 176199708403849489075947149358797806025 (0x848ED45789C9141DE7F4047E4B4DD9C9)
Complete name : H:HEVC-CLUBManiac CopManiac Cop (1988) BDRip 1080p [HEVC] 10bit.mkv
Format : Matroska
Format version : Version 4
File size : 9.18 GiB
Duration : 1 h 25 min
Overall bit rate : 15.4 Mb/s
Movie name : Маньяк-полицейский
Encoded date : UTC 2019-03-15 20:48:15
Writing application : mkvmerge v25.0.0 ('Prog Noir') 64-bit
Writing library : libebml v1.3.6 + libmatroska v1.4.9 / Lavf57.71.100
Attachments : poster.jpg
ACTORS : Том Аткинс, Брюс Кэмпбелл,
COUNTRY : США
DATE : 1988
DIRECTOR : Уильям Лустиг
ENCODING_INFO : MPEGTS > MKV / H264 > X265 CRF 19.5 Пользовательский 2
GENRE : ужасы, боевик, криминал
HD_VIDEO : 1
Language : und
MEDIA_TYPE : 9
ORIGINAL_TITLE : Maniac Cop

Video
ID : 1
Format : HEVC
Format/Info : High Efficiency Video Coding
Format profile : Main 10@L4.1@High
Codec ID : V_MPEGH/ISO/HEVC
Duration : 1 h 25 min
Bit rate : 15.0 Mb/s
Width : 1 920 pixels
Height : 1 040 pixels
Display aspect ratio : 1.85:1
Frame rate mode : Constant
Frame rate : 23.976 (24000/1001) FPS
Color space : YUV
Chroma subsampling : 4:2:0
Bit depth : 10 bits
Bits/(Pixel*Frame) : 0.313
Stream size : 8.91 GiB (97%)
Writing library : x265 2.9+9-f74003e88622:[Windows][GCC 8.2.0][64 bit] 10bit
Encoding settings : cpuid=1111039 / frame-threads=13 / numa-pools=12 / wpp / no-pmode / no-pme / no-psnr / no-ssim / log-level=3 / input-csp=1 / input-res=1920x1040 / interlace=0 / total-frames=0 / level-idc=41 / high-tier=1 / uhd-bd=0 / ref=5 / allow-non-conformance / no-repeat-headers / annexb / no-aud / no-hrd / info / hash=0 / no-temporal-layers / open-gop / min-keyint=24 / keyint=240 / gop-lookahead=0 / bframes=8 / b-adapt=2 / b-pyramid / bframe-bias=0 / rc-lookahead=40 / lookahead-slices=4 / scenecut=40 / radl=0 / no-intra-refresh / ctu=64 / min-cu-size=8 / rect / no-amp / max-tu-size=32 / tu-inter-depth=3 / tu-intra-depth=3 / limit-tu=0 / rdoq-level=2 / dynamic-rd=0.00 / no-ssim-rd / signhide / no-tskip / nr-intra=0 / nr-inter=0 / no-constrained-intra / no-strong-intra-smoothing / max-merge=3 / limit-refs=3 / no-limit-modes / me=3 / subme=7 / merange=57 / temporal-mvp / weightp / weightb / no-analyze-src-pics / deblock=-3:-3 / no-sao / no-sao-non-deblock / rd=6 / no-early-skip / rskip / no-fast-intra / no-tskip-fast / no-cu-lossless / no-b-intra / no-splitrd-skip / rdpenalty=0 / psy-rd=2.00 / psy-rdoq=1.00 / no-rd-refine / no-lossless / cbqpoffs=0 / crqpoffs=0 / rc=crf / crf=19.5 / qcomp=0.70 / qpstep=4 / stats-write=0 / stats-read=0 / vbv-maxrate=50000 / vbv-bufsize=50000 / vbv-init=0.9 / crf-max=0.0 / crf-min=0.0 / ipratio=1.40 / pbratio=1.30 / aq-mode=1 / aq-strength=1.00 / cutree / zone-count=0 / no-strict-cbr / qg-size=32 / no-rc-grain / qpmax=69 / qpmin=0 / no-const-vbv / sar=1 / overscan=0 / videoformat=5 / range=0 / colorprim=1 / transfer=1 / colormatrix=1 / chromaloc=0 / display-window=0 / max-cll=0,0 / min-luma=0 / max-luma=1023 / log2-max-poc-lsb=8 / vui-timing-info / vui-hrd-info / slices=1 / no-opt-qp-pps / no-opt-ref-list-length-pps / no-multi-pass-opt-rps / scenecut-bias=0.05 / no-opt-cu-delta-qp / no-aq-motion / no-hdr / no-hdr-opt / no-dhdr10-opt / no-idr-recovery-sei / analysis-reuse-level=5 / scale-factor=0 / refine-intra=0 / refine-inter=0 / refine-mv=0 / no-limit-sao / ctu-info=0 / no-lowpass-dct / refine-mv-type=0 / copy-pic=1 / max-ausize-factor=1.0 / no-dynamic-refine / no-single-sei
Default : Yes
Forced : No
Color range : Limited
Color primaries : BT.709
Transfer characteristics : BT.709
Matrix coefficients : BT.709

Audio
ID : 2
Format : AC-3
Format/Info : Audio Coding 3
Commercial name : Dolby Digital
Codec ID : A_AC3
Duration : 1 h 25 min
Bit rate mode : Constant
Bit rate : 448 kb/s
Channel(s) : 6 channels
Channel layout : L R C LFE Ls Rs
Sampling rate : 48.0 kHz
Frame rate : 31.250 FPS (1536 SPF)
Bit depth : 16 bits
Compression mode : Lossy
Stream size : 273 MiB (3%)
Service kind : Complete Main
Default : Yes
Forced : No

Menu
00:00:00.000 : :Глава 1
00:05:49.766 : :Глава 2
00:12:07.435 : :Глава 3
00:18:25.354 : :Глава 4
00:23:55.267 : :Глава 5
00:29:15.211 : :Глава 6
00:40:04.235 : :Глава 7
00:45:53.208 : :Глава 8
00:53:08.935 : :Глава 9
00:59:17.720 : :Глава 10
01:06:43.332 : :Глава 11
01:14:18.704 : :Глава 12
01:20:27.864 : :Глава 13
01:22:53.134 : :Глава 14

piratbit.pw



Скачать Маньяк-полицейский через торрент http://img12.lostpic.net/2017/10/24/f6d2c289dcb81007e980c9e77c26e759.jpg Скачать фильм Маньяк-полицейский через торрент бесплантно в хорошем качестве Описание: Нью-Йорк в ужасе! Город охватила серия жестоких убийств. Все свидетели утверждают, что их совершил некто в форме полицейского. ... 10 10 3
Торрент: Зарегистрирован [2019-03-22 20:54] · скачан: 7 раз
Статус: √ проверено
Размер: 9.18 GB
Как cкачать? Как скачать Маньяк-полицейский через торрент | UTorrent

% Раздел Тема Автор DL S | L
Сборники и Сиквелы (48-60 fps) [ 9.55 GB ] Маньяк-полицейский 1 2 3 / Maniac Cop 1 2 3 [1988-1993 BDRip 720p / 60fps AVO] от R.G. HD-Films) slaventi-69 Скачать
1 | 0
Фильмы с авторской озвучкой [ 14.89 GB ] Маньяк-полицейский / Maniac Cop [1988 BDRip 1080p by msltel] 2 x AVO VO msltel Скачать
1 | 0
Фильмы с авторской озвучкой [ 5.46 GB ] Маньяк-полицейский / Maniac Cop [1988 BDRip 720p by msltel] 2 x AVO VO msltel Скачать
1 | 0

28-11-2019 20:33  

Отключить всю рекламу на сайте

22-03-2019 21:48 Маньяк-полицейский Скачать торрент  

на последнем скриншоте Эш из зловещих.помню этот фильм.вроде есть продолжение

большое спасибоpiratbit.pw



    Дорогой пользователь! Огромная просьба, поблагодарите релизера, оцените раздачу и оставьте свои комментарий, если Вы скачали Маньяк-полицейский через торрент бесплатно! Внесите свою лепту в развитие PiratBit!
    Комментировать посты могут только пользователи прошедшие не сложную регистрацию
    Показать сообщения:    

    Маньяк-полицейский через торрент
    Скачать бесплатно Маньяк-полицейский
    Маньяк-полицейский скачать торрент
    Маньяк-полицейский смотреть онлайн
    Cкачать фильм Маньяк-полицейский бесплатно
    Маньяк-полицейский скачать торрент в хорошем качестве
    Маньяк-полицейский смотреть онлайн бесплатно в хорошем качестве


    Вы не можете начинать темы
    Вы не можете отвечать на сообщения
    Вы не можете редактировать свои сообщения
    Вы не можете удалять свои сообщения
    Вы не можете голосовать в опросах
    Вы не можете прикреплять файлы к сообщениям
    Вы можете скачивать файлы