Marvel's Avengers Deluxe Edition (супер цена) 159р. Внимание количество ограничено!!!

2 сезон

iTunes

iTunes

1

iTunes

iTunes

iTunes

WEBRip

iTunes

30
pack

Новость дня

ВАЖНО

!!Акция!!

Alien_RageХит недели

RePack

Horizon Zero Dawn

ИГРА 18+

pack

RePack

jed

!!Акция!!

Alien_Rage

RePack

fifa19

RePack

Assassins Creed: Odyssey

RePack

NEED FOR SPEED™ PAYBACK

4 сезон

9 сезон

Бесстыжие 9 сезон

Все сериалы

все сериалы на PB.wtf

RePack

FAR CRY 5
  

Гринч / The Grinch (Ярроу Чейни, Скотт Моужер) [2018, мультфильм, фэнтези, комедия, UHD BDRip 2160p] [SDR] DUB [Лицензия] + 2xMVO piratbit.pw

Гринч через торрент piratbit.pw

Размер: 10.24 GB | Добавлен: 1 год 5 мес. назад | Торрент скачан:48 раз
Скачать  

22-03-2019 07:52 Гринч Скачать торрент  

Гринч / The Grinch««Символ нового года»»

Год выпуска: 2018
Страна: Франция, Китай, Япония, США
Жанр: мультфильм, фэнтези, комедия, семейный
Продолжительность: 01:27:26
Перевод: Дублированный, профессиональный многоголосый, любительский многоголосый
Субтитры: Русские, английские
Режиссер: Ярроу Чейни, Скотт Моужер
В ролях:

Бенедикт Камбербэтч (The Grinch, озвучка), Кэмерон Сили (Cindy-Lou Who, озвучка), Рашида Джонс (Donna Who, озвучка), Фаррелл Уильямс (рассказчик, озвучка), Тристан О’Хэйр (Groopert, озвучка), Кенан Томпсон (Mr. Bricklebaum, озвучка), Сэм Лаваньино (Ozzy, озвучка), Рамон Хэмилтон (Axl, озвучка), Анджела Лэнсбери (Mayor McGerkle, озвучка), Скарлетт Эстевес (Izzy, озвучка), Майкл Битти (Store Clerk, озвучка), Лори Алан (дополнительные голоса, озвучка)
Описание:
Любой бы на месте Гринча позеленел и взбесился. Как порядочный интроверт он живёт в тёмной пещере на самой вершине горы подальше ото всех, но эти «все» готовят грандиознейшее празднование нового года. Они шумят, всё украшают и дико бесят. Кто бы отказал себе в удовольствии испортить праздник? Гринч решает украсть Новый год.
Рейтинг:

MPAA: PG - Рекомендуется присутствие родителей
Качество: UHD BDRip 2160p | SDR
Формат: MKV
Видео: HEVC, 10800 Кбит/c, 3840x1606, 23.976 Кадр/с, 10 бит
Аудио 1: Русский / AC3 / 48 KHz / 5.1 ch / 640 Kbps Дублированный | Лицензия
Аудио 2: Русский / AC3 / 48 KHz / 2.0 ch / 192 Kbps Профессиональный (многоголосый, закадровый) | HDRezka Studio
Аудио 3: Русский / AC3 / 48 KHz / 5.1 ch / 640 Kbps (MVO - MuzOboz) [ремастеринг - от Ash6]
Аудио 4: Английский / TrueHD+Atmos / 48 KHz / 7.1 ch / 4289 Kbps (Original)
Аудио 5: Английский / AC3 / 48 KHz / 5.1 ch / 448 Kbps (Original)
Навигация по главам: есть

Общее
Уникальный идентификатор : 194337628466111499174484579246561822618 (0x923410D82A1CD165B276C7E4B7B0079A)
Полное имя : E:\The.Grinch.2018.2160p.UHD.BDRip.x265.10bit.SDR.Master5.mkv
Формат : Matroska
Версия формата : Version 4 / Version 2
Размер файла : 10,2 Гбайт
Продолжительность : 1 ч. 25 м.
Режим общего битрейта : Переменный
Общий поток : 17,1 Мбит/сек
Название фильма : The.Grinch.2018.2160p.UHD.BDRip.x265.10bit.SDR.Master5
Дата кодирования : UTC 2019-04-06 06:37:56
Программа кодирования : mkvmerge v7.9.0 ('Birds') 64bit
Библиотека кодирования : libebml v1.3.1 + libmatroska v1.4.2
Обложка : Yes
Attachments : small_cover_land.jpg / cover.jpg / cover_land.jpg / small_cover.jpg

Видео
Идентификатор : 1
Формат : HEVC
Формат/Информация : High Efficiency Video Coding
Профиль формата : Main 10@L5.1@High
Идентификатор кодека : V_MPEGH/ISO/HEVC
Продолжительность : 1 ч. 25 м.
Битрейт : 10,8 Мбит/сек
Ширина : 3840 пикселей
Высота : 1606 пикселей
Соотношение сторон : 2,40:1
Режим частоты кадров : Постоянный
Частота кадров : 23,976 (24000/1001) кадра/сек
Цветовое пространство : YUV
Субдискретизация насыщенности : 4:2:0
Битовая глубина : 10 бит
Бит/(Пиксели*Кадры) : 0.073
Размер потока : 6,47 Гбайт (63%)
Заголовок : The.Grinch.2018.2160p.UHD.BDRip.x265.10bit.SDR.Master5
Библиотека кодирования : x265 3.0+1-ed72af837053:[Windows][GCC 8.2.0][64 bit] 10bit
Настройки программы : cpuid=1111039 / frame-threads=16 / numa-pools=24,24,24,24 / wpp / no-pmode / no-pme / no-psnr / no-ssim / log-level=2 / input-csp=1 / input-res=3840x1606 / interlace=0 / total-frames=123455 / level-idc=51 / high-tier=1 / uhd-bd=0 / ref=3 / no-allow-non-conformance / repeat-headers / annexb / aud / hrd / info / hash=0 / no-temporal-layers / no-open-gop / min-keyint=1 / keyint=24 / gop-lookahead=0 / bframes=6 / b-adapt=2 / b-pyramid / bframe-bias=0 / rc-lookahead=25 / lookahead-slices=4 / scenecut=40 / radl=0 / no-splice / no-intra-refresh / ctu=64 / min-cu-size=8 / no-rect / no-amp / max-tu-size=32 / tu-inter-depth=1 / tu-intra-depth=1 / limit-tu=0 / rdoq-level=0 / dynamic-rd=0.00 / no-ssim-rd / signhide / no-tskip / nr-intra=0 / nr-inter=0 / no-constrained-intra / strong-intra-smoothing / max-merge=2 / limit-refs=3 / no-limit-modes / me=1 / subme=2 / merange=57 / temporal-mvp / weightp / no-weightb / no-analyze-src-pics / deblock=1:1 / no-sao / no-sao-non-deblock / rd=3 / no-early-skip / rskip / no-fast-intra / no-tskip-fast / no-cu-lossless / no-b-intra / no-splitrd-skip / rdpenalty=0 / psy-rd=0.40 / psy-rdoq=0.00 / no-rd-refine / no-lossless / cbqpoffs=0 / crqpoffs=0 / rc=crf / crf=16.0 / qcomp=0.60 / qpstep=4 / stats-write=0 / stats-read=0 / vbv-maxrate=160000 / vbv-bufsize=160000 / vbv-init=0.9 / crf-max=0.0 / crf-min=0.0 / ipratio=1.40 / pbratio=1.30 / aq-mode=1 / aq-strength=0.40 / cutree / zone-count=0 / no-strict-cbr / qg-size=32 / no-rc-grain / qpmax=69 / qpmin=0 / no-const-vbv / sar=1 / overscan=0 / videoformat=5 / range=0 / colorprim=2 / transfer=2 / colormatrix=2 / chromaloc=0 / display-window=0 / max-cll=0,0 / min-luma=0 / max-luma=1023 / log2-max-poc-lsb=8 / vui-timing-info / vui-hrd-info / slices=1 / opt-qp-pps / opt-ref-list-length-pps / no-multi-pass-opt-rps / scenecut-bias=0.05 / no-opt-cu-delta-qp / no-aq-motion / no-hdr / no-hdr-opt / no-dhdr10-opt / no-idr-recovery-sei / analysis-reuse-level=5 / scale-factor=0 / refine-intra=0 / refine-inter=0 / refine-mv=0 / refine-ctu-distortion=0 / no-limit-sao / ctu-info=0 / no-lowpass-dct / refine-analysis-type=0 / copy-pic=1 / max-ausize-factor=1.0 / no-dynamic-refine / no-single-sei / no-hevc-aq / qp-adaptation-range=1.00
Default : Да
Forced : Нет

Аудио #1
Идентификатор : 2
Формат : AC-3
Формат/Информация : Audio Coding 3
Идентификатор кодека : A_AC3
Продолжительность : 1 ч. 25 м.
Вид битрейта : Постоянный
Битрейт : 640 Кбит/сек
Каналы : 6 каналов
Расположение каналов : Front: L C R, Side: L R, LFE
Частота : 48,0 КГц
Частота кадров : 31,250 кадров/сек (1536 SPF)
Битовая глубина : 16 бит
Метод сжатия : С потерями
Размер потока : 393 Мбайт (4%)
Заголовок : Dub License
Язык : Russian
ServiceKind/String : Complete Main
Default : Да
Forced : Да

Аудио #2
Идентификатор : 3
Формат : AC-3
Формат/Информация : Audio Coding 3
Идентификатор кодека : A_AC3
Продолжительность : 1 ч. 25 м.
Вид битрейта : Постоянный
Битрейт : 192 Кбит/сек
Каналы : 2 канала
Расположение каналов : Front: L R
Частота : 48,0 КГц
Частота кадров : 31,250 кадров/сек (1536 SPF)
Битовая глубина : 16 бит
Метод сжатия : С потерями
Размер потока : 118 Мбайт (1%)
Заголовок : многоголосый HDRezka Studio
Язык : Russian
ServiceKind/String : Complete Main
Default : Нет
Forced : Нет

Аудио #3
Идентификатор : 4
Формат : AC-3
Формат/Информация : Audio Coding 3
Идентификатор кодека : A_AC3
Продолжительность : 1 ч. 25 м.
Вид битрейта : Постоянный
Битрейт : 640 Кбит/сек
Каналы : 6 каналов
Расположение каналов : Front: L C R, Side: L R, LFE
Частота : 48,0 КГц
Частота кадров : 31,250 кадров/сек (1536 SPF)
Битовая глубина : 16 бит
Метод сжатия : С потерями
Размер потока : 393 Мбайт (4%)
Заголовок : MVO
Язык : Russian
ServiceKind/String : Complete Main
Default : Нет
Forced : Нет

Аудио #4
Идентификатор : 5
Формат : TrueHD
Профиль формата : TrueHD+Atmos / TrueHD
Идентификатор кодека : A_TRUEHD
Продолжительность : 1 ч. 25 м.
Вид битрейта : Переменный
Битрейт : 4289 Кбит/сек
Максимальный битрейт : 6513 Кбит/сек
Каналы : Object Based / 8 каналов
Расположение каналов : Object Based / Front: L C R, Side: L R, Back: L R, LFE
Частота : / 48,0 КГц
Частота кадров : 1200,000 кадров/сек (40 SPF)
Метод сжатия : Без потерь
Задержка видео : 33 мс.
Размер потока : 2,57 Гбайт (25%)
Заголовок : Original
Язык : English
Default : Нет
Forced : Нет

Аудио #5
Идентификатор : 6
Формат : AC-3
Формат/Информация : Audio Coding 3
Идентификатор кодека : A_AC3
Продолжительность : 1 ч. 25 м.
Вид битрейта : Постоянный
Битрейт : 448 Кбит/сек
Каналы : 6 каналов
Расположение каналов : Front: L C R, Side: L R, LFE
Частота : 48,0 КГц
Частота кадров : 31,250 кадров/сек (1536 SPF)
Битовая глубина : 16 бит
Метод сжатия : С потерями
Размер потока : 275 Мбайт (3%)
Заголовок : Original
Язык : English
ServiceKind/String : Complete Main
Default : Нет
Forced : Нет

Текст #1
Идентификатор : 7
Формат : UTF-8
Идентификатор кодека : S_TEXT/UTF8
Идентификатор кодека/Информация : UTF-8 Plain Text
Продолжительность : 1 ч. 17 м.
Битрейт : 2 бит/сек
ElementCount : 27
Размер потока : 1,14 Кбайт (0%)
Заголовок : Форсированные
Язык : Russian
Default : Да
Forced : Нет

Текст #2
Идентификатор : 8
Формат : UTF-8
Идентификатор кодека : S_TEXT/UTF8
Идентификатор кодека/Информация : UTF-8 Plain Text
Продолжительность : 1 ч. 17 м.
Битрейт : 52 бит/сек
ElementCount : 1024
Размер потока : 30,0 Кбайт (0%)
Заголовок : Full
Язык : English
Default : Нет
Forced : Нет

Текст #3
Идентификатор : 9
Формат : UTF-8
Идентификатор кодека : S_TEXT/UTF8
Идентификатор кодека/Информация : UTF-8 Plain Text
Продолжительность : 1 ч. 20 м.
Битрейт : 61 бит/сек
ElementCount : 1304
Размер потока : 36,1 Кбайт (0%)
Заголовок : SDH
Язык : English
Default : Нет
Forced : Нет

Меню
00:00:00.000 : :1
00:05:40.298 : :2
00:10:35.927 : :3
00:14:14.103 : :4
00:17:45.106 : :5
00:22:19.296 : :6
00:26:28.337 : :7
00:30:45.093 : :8
00:34:46.584 : :9
00:38:37.190 : :10
00:44:40.595 : :11
00:47:27.678 : :12
00:52:37.488 : :13
00:56:33.181 : :14
01:01:04.995 : :15
01:05:34.639 : :16
01:07:23.456 : :17
01:12:14.914 : :18
01:14:12.782 : :19
01:18:08.309 : :20
piratbit.pw



Скачать Гринч через торрент https://a.radikal.ru/a10/1903/e2/499f324040c3.png Скачать фильм Гринч через торрент бесплантно в хорошем качестве Описание: Любой бы на месте Гринча позеленел и взбесился. Как порядочный интроверт он живёт в тёмной пещере на самой вершине горы подальше ... 10 10 3
Торрент: Зарегистрирован [2019-04-06 09:28] · скачан: 48 раз
Статус: √ проверено
Размер: 10.24 GB
Как cкачать? Как скачать Гринч через торрент | qTorrent

% Раздел Тема Автор DL S | L
Ultra HD (UHD: 2K, 4K, 8K) [ 8.1 GB ] Гринч / The Grinch [2018 мультфильм UHD BDRip 2160p] DUB [] + 2xMVO sheker187 Скачать
1 | 0
3D Мультфильмы [ 5.79 GB ] Гринч в 3Д / The Grinch 3D [2018 мультфильм BDRip 1080p] + 2xMVO sheker187 Скачать
2 | 0
Фильмы [HD 720p, 1080p] (Хороший звук DUB, MVO) [ 7.76 GB ] Гринч – похититель Рождества / How the Grinch Stole Christmas [2000 BDRip 720p от _denis_100 / NNNB] DUB + 3xMVO + AVO + Original + Sub _denis_100 Скачать
1 | 0

28-11-2019 20:33  

Отключить всю рекламу на сайте

06-04-2019 09:28 Гринч Скачать торрент  

Релиз обновлён - замена на лицензию
Желающие, скачайте заново торрент-файл.
Приятного просмотра!piratbit.pw



    Дорогой пользователь! Огромная просьба, поблагодарите релизера, оцените раздачу и оставьте свои комментарий, если Вы скачали Гринч через торрент бесплатно! Внесите свою лепту в развитие PiratBit!
    Комментировать посты могут только пользователи прошедшие не сложную регистрацию
    Показать сообщения:    

    Гринч через торрент
    Скачать бесплатно Гринч
    Гринч скачать торрент
    Гринч смотреть онлайн
    Cкачать фильм Гринч бесплатно
    Гринч скачать торрент в хорошем качестве
    Гринч смотреть онлайн бесплатно в хорошем качестве


    Вы не можете начинать темы
    Вы не можете отвечать на сообщения
    Вы не можете редактировать свои сообщения
    Вы не можете удалять свои сообщения
    Вы не можете голосовать в опросах
    Вы не можете прикреплять файлы к сообщениям
    Вы можете скачивать файлы