1 сезон

1 сезон

iTunes

1

КиноПоиск HD

Кинопоиск HD

iTunes

13

1 сезон

RePack

30

Новинка

ВАЖНО

ИГРА 18+

pack

RePack

MK11
pack

Легкие деньги

RePack

jed

RePack

fifa19

RePack

RDR2

RePack

NEED FOR SPEED™ PAYBACK

4 сезон

9 сезон

Бесстыжие 9 сезон

Все сериалы

все сериалы на PB.wtf

RePack

FAR CRY 5
  
Magnet ссылка

Босс ниггер / Boss Nigger (Джек Арнольд) [1975, комедия, вестерн, BDRip 720p by msltel] AVO piratbit.pw

Босс ниггер через торрент piratbit.pw

Размер: 3.02 GB | Добавлен: 2 года 1 мес. назад | Торрент скачан:9 раз
Скачать  

13-03-2019 07:22 Босс ниггер Скачать торрент  

Название: Босс ниггер
Оригинальное название: Boss Nigger
Год выпуска: 1975
Страна: США
Жанр: комедия, вестерн
Продолжительность: 01:32:48
Перевод: авторский

Режиссер: Джек Арнольд
В ролях: Фред Уильямсон, Д’Арвиль Мартин, Уильям Смит, Р.Г. Армстронг, Дон ’Красный’ Бэрри, Барбара Ли, Кармен Хэйуорт, Кармен Запата, Брюс Гордон, Бен Зеллер

О фильме: Два охотника за головами в поисках преступника прибывают в городишко без шерифа и берут на себя его полномочия против воли местных горожан...



Качество: BDRip 720p
Формат: MKV
Видео: MPEG-4 AVC, 4279 Кбит/с, 1280x504, 23.976 кадр/с
Аудио 1: русский, AC3, 192 kbps, 2 ch, 48 kHz [авторский, Алексей Яковлев]
Аудио 2: английский, AC3, 192 kbps, 2 ch, 48 kHz [оригинал]
Субтитры: английские
Главы/чаптеры
Общее
Уникальный идентификатор : 240842958254821498015407575906834905664 (0xB530AAA10A428517A3AA1295A102FA40)
Полное имя : D:\Video\Boss Nigger.1975.BDRip 720p by msltel.mkv
Формат : Matroska
Версия формата : Version 4
Размер файла : 3,02 Гбайт
Продолжительность : 1 ч. 32 м.
Общий поток : 4665 Кбит/сек
Название фильма : Rip by msltel
Дата кодирования : UTC 2019-03-12 18:22:21
Программа кодирования : mkvmerge v8.2.0 ('World of Adventure') 64bit
Библиотека кодирования : libebml v1.3.1 + libmatroska v1.4.2

Видео
Идентификатор : 1
Формат : AVC
Формат/Информация : Advanced Video Codec
Профиль формата : High@L4.1
Настройки формата : CABAC / 9 Ref Frames
Параметр CABAC формата : Да
Параметр RefFrames формата : 9 кадров
Идентификатор кодека : V_MPEG4/ISO/AVC
Продолжительность : 1 ч. 32 м.
Битрейт : 4279 Кбит/сек
Ширина : 1280 пикселей
Высота : 504 пикселя
Соотношение сторон : 2,540
Режим частоты кадров : Постоянный
Частота кадров : 23,976 (24000/1001) кадра/сек
Цветовое пространство : YUV
Субдискретизация насыщенности : 4:2:0
Битовая глубина : 8 бит
Тип развёртки : Прогрессивная
Бит/(Пиксели*Кадры) : 0.277
Размер потока : 2,77 Гбайт (92%)
Библиотека кодирования : x264 core 157 r2935 545de2f
Настройки программы : cabac=1 / ref=9 / deblock=1:-2:-2 / analyse=0x3:0x113 / me=umh / subme=11 / psy=1 / psy_rd=1.00:0.15 / mixed_ref=1 / me_range=32 / chroma_me=1 / trellis=2 / 8x8dct=1 / cqm=0 / deadzone=21,11 / fast_pskip=0 / chroma_qp_offset=-3 / threads=6 / lookahead_threads=1 / sliced_threads=0 / nr=0 / decimate=1 / interlaced=0 / bluray_compat=0 / constrained_intra=0 / bframes=12 / b_pyramid=2 / b_adapt=2 / b_bias=0 / direct=1 / weightb=1 / open_gop=0 / weightp=2 / keyint=230 / keyint_min=23 / scenecut=40 / intra_refresh=0 / rc_lookahead=40 / rc=crf / mbtree=1 / crf=18.0 / qcomp=0.60 / qpmin=0 / qpmax=69 / qpstep=4 / vbv_maxrate=50000 / vbv_bufsize=62500 / crf_max=0.0 / nal_hrd=none / filler=0 / ip_ratio=1.40 / aq=1:1.00
Язык : English
Default : Да
Forced : Нет

Аудио #1
Идентификатор : 2
Формат : AC-3
Формат/Информация : Audio Coding 3
Коммерческое название : Dolby Digital
Идентификатор кодека : A_AC3
Продолжительность : 1 ч. 32 м.
Вид битрейта : Постоянный
Битрейт : 192 Кбит/сек
Каналы : 2 канала
Channel layout : L R
Частота : 48,0 КГц
Частота кадров : 31,250 кадров/сек (1536 SPF)
Битовая глубина : 16 бит
Метод сжатия : С потерями
Размер потока : 127 Мбайт (4%)
Заголовок : Алексей Яковлев
Язык : Russian
ServiceKind/String : Complete Main
Default : Да
Forced : Нет

Аудио #2
Идентификатор : 3
Формат : AC-3
Формат/Информация : Audio Coding 3
Коммерческое название : Dolby Digital
Идентификатор кодека : A_AC3
Продолжительность : 1 ч. 32 м.
Вид битрейта : Постоянный
Битрейт : 192 Кбит/сек
Каналы : 2 канала
Channel layout : L R
Частота : 48,0 КГц
Частота кадров : 31,250 кадров/сек (1536 SPF)
Битовая глубина : 16 бит
Метод сжатия : С потерями
Размер потока : 127 Мбайт (4%)
Заголовок : original
Язык : English
ServiceKind/String : Complete Main
Default : Нет
Forced : Нет

Текст
Идентификатор : 4
Формат : UTF-8
Идентификатор кодека : S_TEXT/UTF8
Идентификатор кодека/Информация : UTF-8 Plain Text
Продолжительность : 1 ч. 32 м.
Битрейт : 46 бит/сек
ElementCount : 1101
Размер потока : 31,4 Кбайт (0%)
Заголовок : английские
Язык : English
Default : Нет
Forced : Нет

Меню
00:00:00.000 : :Chapter 1
00:08:52.573 : :Chapter 2
00:14:55.936 : :Chapter 3
00:23:36.164 : :Chapter 4
00:31:34.726 : :Chapter 5
00:36:43.618 : :Chapter 6
00:44:15.069 : :Chapter 7
00:51:35.509 : :Chapter 8
01:00:16.362 : :Chapter 9
01:07:44.894 : :Chapter 10
01:16:14.403 : :Chapter 11
01:25:23.033 : :Chapter 12
01:32:46.686 : :Chapter 13
piratbit.pw



Скачать Босс ниггер через торрент https://a.radikal.ru/a14/1903/a6/bf3d460ed0d7.jpg Скачать фильм Босс ниггер через торрент бесплантно в хорошем качестве О фильме: Два охотника за головами в поисках преступника прибывают в городишко без шерифа и берут на себя его полномочия против воли ... 5 10 1
Info! Золотая раздача, скачанное не засчитывается.
Торрент: Зарегистрирован [2019-03-13 07:22] · скачан: 9 раз
Статус: √ проверено
Размер: 3.02 GB
Как cкачать? Как скачать Босс ниггер через торрент | UTorrent

% Раздел Тема Автор DL S | L
Фильмы с авторской озвучкой [ 9.84 GB ] Босс ниггер / Boss Nigger [1975 BDRip 1080p by msltel] AVO msltel Скачать
2 | 0

28-11-2019 20:33  

Отключить всю рекламу на сайте

    Дорогой пользователь! Огромная просьба, поблагодарите релизера, оцените раздачу и оставьте свои комментарий, если Вы скачали Босс ниггер через торрент бесплатно! Внесите свою лепту в развитие PiratBit!
    Комментировать посты могут только пользователи прошедшие не сложную регистрацию
    Показать сообщения:    

    Босс ниггер через торрент
    Скачать бесплатно Босс ниггер
    Босс ниггер скачать торрент
    Босс ниггер смотреть онлайн
    Cкачать фильм Босс ниггер бесплатно
    Босс ниггер скачать торрент в хорошем качестве
    Босс ниггер смотреть онлайн бесплатно в хорошем качестве


    Вы не можете начинать темы
    Вы не можете отвечать на сообщения
    Вы не можете редактировать свои сообщения
    Вы не можете удалять свои сообщения
    Вы не можете голосовать в опросах
    Вы не можете прикреплять файлы к сообщениям
    Вы можете скачивать файлы